<?xml version="1.0" standalone="no"?>
<!DOCTYPE svg PUBLIC "-//W3C//DTD SVG 1.1//EN" "http://www.w3.org/Graphics/SVG/1.1/DTD/svg11.dtd" >
<svg>
<metadata>
Created by FontForge 20090622 at Tue May 19 20:19:54 2015
 By deploy user
Copyright (c) 2011-2014 by tyPoland Lukasz Dziedzic (http://www.typoland.com/) with Reserved Font Name "Lato". Licensed under the SIL Open Font License, Version 1.1 (http://scripts.sil.org/OFL). 
</metadata>
<defs>
<font id="Lato-Medium" horiz-adv-x="800" >
  <font-face 
    font-family="Lato Medium"
    font-weight="500"
    font-stretch="normal"
    units-per-em="2000"
    panose-1="2 15 5 2 2 2 4 3 2 3"
    ascent="1610"
    descent="-390"
    x-height="1016"
    cap-height="1436"
    bbox="-1122 -544 2687 2168"
    underline-thickness="92"
    underline-position="-418"
    unicode-range="U+0020-U+FEFF"
  />
<missing-glyph horiz-adv-x="1071" 
d="M247 1143q26 22 55.5 41t64.5 33.5t75 23t87 8.5q64 0 117 -18t90 -50.5t57.5 -79t20.5 -103.5q0 -55 -14.5 -94.5t-37 -69t-49 -51l-50.5 -40.5t-41.5 -37t-21.5 -41l-18 -103h-133l-14 117q-5 35 8 60.5t35 47t49 41t50.5 42t39.5 50.5t16 67q0 47 -33.5 74.5
t-87.5 27.5q-39 0 -66.5 -8.5t-47 -18.5t-33.5 -18.5t-26 -8.5q-27 0 -40 24zM393 298q0 24 9 45.5t24.5 37.5t36.5 25t46 9q24 0 45 -9t36.5 -25t24.5 -37.5t9 -45.5q0 -25 -9 -46.5t-24.5 -37t-36.5 -24.5t-45 -9q-25 0 -46 9t-36.5 24.5t-24.5 37t-9 46.5zM44 1436h983
v-1436h-983v1436zM98 58h869v1320h-869v-1320z" />
    <glyph glyph-name="f_b.liga" unicode="fb" horiz-adv-x="1837" 
d="M1045 876q63 70 143 113t182 43q89 0 160.5 -34.5t121.5 -99t77 -156.5t27 -208q0 -123 -30.5 -224t-87 -173t-137.5 -111.5t-182 -39.5q-49 0 -90 9.5t-75.5 27.5t-63.5 44t-55 59l-9 -85q-8 -41 -50 -41h-126v1341q-42 12 -87 20t-86 8q-73 0 -126.5 -22t-88 -60.5
t-51.5 -92t-17 -116.5v-78h285v-142h-279v-858h-196v856l-106 13q-23 5 -37.5 16.5t-14.5 33.5v81h158v78q0 91 26.5 168t85 133t150 87.5t222.5 31.5q43 0 81.5 -3t78 -7t82 -7.5t93.5 -4.5h22v-600zM1045 250q48 -63 104 -88t122 -25q136 0 209.5 97t73.5 293
q0 181 -65 265.5t-184 84.5q-84 0 -145.5 -38t-114.5 -108v-481z" />
    <glyph glyph-name="f_f_b.liga" unicode="ffb" horiz-adv-x="2472" 
d="M204 0v856l-106 13q-23 5 -37.5 16.5t-14.5 33.5v81h158v76q0 87 25 155t71.5 115.5t112 72t147.5 24.5q69 0 127 -20l-4 -99q-1 -12 -8 -18.5t-18.5 -9.5t-28 -3.5t-35.5 -0.5q-45 0 -82 -11t-63 -37t-40 -68.5t-14 -105.5v-70h444v78q0 91 26.5 168t85 133t150 87.5
t222.5 31.5q43 0 82 -3t78.5 -7t82 -7.5t93.5 -4.5h22v-600q63 70 143 113t182 43q89 0 160.5 -34.5t121.5 -99t77 -156.5t27 -208q0 -123 -30.5 -224t-87 -173t-137.5 -111.5t-182 -39.5q-49 0 -90 9.5t-75.5 27.5t-63.5 44t-55 59l-9 -85q-8 -41 -50 -41h-126v1341
q-42 12 -87 20t-87 8q-73 0 -126.5 -22t-88 -60.5t-51.5 -92t-17 -116.5v-78h285v-142h-279v-858h-196v858h-438v-858h-196zM1680 250q48 -63 104 -88t122 -25q136 0 209.5 97t73.5 293q0 181 -65 265.5t-184 84.5q-84 0 -145.5 -38t-114.5 -108v-481z" />
    <glyph glyph-name="uniFB00" unicode="ff" horiz-adv-x="1339" 
d="M204 0v856l-106 13q-23 5 -37.5 16.5t-14.5 33.5v81h158v76q0 87 25 155t71.5 115.5t112 72t147.5 24.5q69 0 127 -20l-4 -99q-1 -12 -8 -18.5t-18.5 -9.5t-28 -3.5t-35.5 -0.5q-45 0 -82 -11t-63 -37t-40 -68.5t-14 -105.5v-70h444v104q0 87 25 155t71.5 115.5t112.5 72
t148 24.5q67 0 127 -20l-5 -98q-1 -13 -7.5 -19.5t-18.5 -9.5t-28 -3.5t-36 -0.5q-45 0 -82 -11t-63 -37t-40 -68.5t-14 -105.5v-98h285v-142h-279v-858h-196v858h-438v-858h-196z" />
    <glyph glyph-name="f_h.liga" unicode="fh" horiz-adv-x="1832" 
d="M204 0v856l-106 13q-23 5 -37.5 16.5t-14.5 33.5v81h158v78q0 91 26.5 168t85 133t150 87.5t222.5 31.5q45 0 85.5 -3.5l82.5 -7.5t87.5 -7.5t101.5 -3.5v-589q64 65 141.5 105t178.5 40q84 0 147.5 -28t106.5 -78.5t65 -121.5t22 -157v-647h-196v647q0 109 -50 169.5
t-153 60.5q-75 0 -140.5 -35.5t-121.5 -96.5v-745h-195v1341q-42 12 -87 20t-86 8q-73 0 -126.5 -22t-88 -60.5t-51.5 -92t-17 -116.5v-78h285v-142h-279v-858h-196z" />
    <glyph glyph-name="f_f_h.liga" unicode="ffh" horiz-adv-x="2466" 
d="M204 0v856l-106 13q-23 5 -37.5 16.5t-14.5 33.5v81h158v76q0 87 25 155t71.5 115.5t112 72t147.5 24.5q69 0 127 -20l-4 -99q-1 -12 -8 -18.5t-18.5 -9.5t-28 -3.5t-35.5 -0.5q-45 0 -82 -11t-63 -37t-40 -68.5t-14 -105.5v-70h444v78q0 91 26.5 168t85 133t150 87.5
t222.5 31.5q45 0 86 -3.5t82.5 -7.5t87.5 -7.5t102 -3.5v-589q64 65 141.5 105t178.5 40q84 0 147.5 -28t106.5 -78.5t65 -121.5t22 -157v-647h-196v647q0 109 -50 169.5t-153 60.5q-75 0 -140.5 -35.5t-121.5 -96.5v-745h-195v1341q-42 12 -87 20t-87 8q-73 0 -126.5 -22
t-88 -60.5t-51.5 -92t-17 -116.5v-78h285v-142h-279v-858h-196v858h-438v-858h-196z" />
    <glyph glyph-name="uniFB01" unicode="fi" horiz-adv-x="1159" 
d="M205 0v856l-106 13q-23 5 -37.5 16.5t-14.5 33.5v81h158v49q0 93 29.5 171.5t89 135.5t148 88.5t207.5 31.5q38 0 80 -5t71 -15l-7 -102q-2 -20 -25 -21t-64 -1q-91 0 -155 -18t-105 -54t-60 -90.5t-19 -126.5v-43h618v-1000h-196v858h-416v-858h-196z" />
    <glyph glyph-name="f_igrave.liga" unicode="f&#xec;" horiz-adv-x="1159" 
d="M709 1476q60 0 96 -19t53 -51l147 -242h-111q-23 0 -37.5 6.5t-28.5 23.5l-127 138q-161 -5 -233.5 -77t-72.5 -212v-43h618v-1000h-196v858h-416v-858h-196v856l-106 13q-23 5 -37.5 16.5t-14.5 33.5v81h158v49q0 93 28.5 171.5t89.5 135.5t156.5 88.5t229.5 31.5z" />
    <glyph glyph-name="f_icircumflex.liga" unicode="f&#xee;" horiz-adv-x="1158" 
d="M205 0v856l-106 13q-23 5 -37.5 16.5t-14.5 33.5v81h158v129q0 165 77 251.5t217 86.5q25 0 44.5 -2.5t38.5 -8.5v-107q0 -17 -15 -22t-41 -5q-68 0 -99.5 -45t-31.5 -148v-129h618v-1000h-196v858h-416v-858h-196zM1236 1169h-131q-12 0 -23.5 4t-24.5 16l-117 125
q-8 8 -17 20q-9 -12 -17 -20l-119 -125q-10 -10 -22.5 -15t-24.5 -5h-136l225 267h182z" />
    <glyph glyph-name="f_itilde.liga" unicode="f&#x129;" horiz-adv-x="1159" 
d="M1024 1334q34 0 52.5 20t19.5 64h119q0 -50 -13.5 -91t-37.5 -70.5t-58 -45.5t-75 -16q-35 0 -65.5 14t-57.5 31t-51.5 31t-46.5 14q-33 0 -51.5 -21t-19.5 -64h-121q0 49 13.5 90.5t38.5 70.5t58.5 45.5t74.5 16.5q36 0 66.5 -14t57.5 -30.5l51 -30.5t46 -14zM205 0v856
l-106 13q-23 5 -37.5 16.5t-14.5 33.5v81h158v129q0 165 77 251.5t217 86.5q25 0 44.5 -2.5t38.5 -8.5v-107q0 -17 -15 -22t-41 -5q-68 0 -99.5 -45t-31.5 -148v-129h618v-1000h-196v858h-416v-858h-196z" />
    <glyph glyph-name="f_idieresis.liga" unicode="f&#xef;" horiz-adv-x="1158" 
d="M866 1290q0 -24 -10 -45.5t-26.5 -37.5t-38.5 -25t-46 -9q-23 0 -44.5 9t-37.5 25t-25.5 37.5t-9.5 45.5q0 25 9.5 47t25.5 38.5t37.5 26t44.5 9.5q24 0 46 -9.5t38.5 -26t26.5 -38.5t10 -47zM1201 1290q0 -24 -9.5 -45.5t-26 -37.5t-38.5 -25t-46 -9t-45.5 9t-37.5 25
t-25.5 37.5t-9.5 45.5q0 25 9.5 47t25.5 38.5t37.5 26t45.5 9.5t46 -9.5t38.5 -26t26 -38.5t9.5 -47zM205 0v856l-106 13q-23 5 -37.5 16.5t-14.5 33.5v81h158v129q0 165 77 251.5t217 86.5q25 0 44.5 -2.5t38.5 -8.5v-107q0 -17 -15 -22t-41 -5q-68 0 -99.5 -45t-31.5 -148
v-129h618v-1000h-196v858h-416v-858h-196z" />
    <glyph glyph-name="f_imacron.liga" unicode="f&#x12b;" horiz-adv-x="1159" 
d="M624 1354h580v-127h-580v127zM205 0v856l-106 13q-23 5 -37.5 16.5t-14.5 33.5v81h158v129q0 165 77 251.5t217 86.5q25 0 44.5 -2.5t38.5 -8.5v-107q0 -17 -15 -22t-41 -5q-68 0 -99.5 -45t-31.5 -148v-129h618v-1000h-196v858h-416v-858h-196z" />
    <glyph glyph-name="f_ibreve.liga" unicode="f&#x12d;" horiz-adv-x="1158" 
d="M914 1164q-79 0 -132.5 21.5t-86.5 59t-47.5 86.5t-14.5 105h138q0 -32 6.5 -59t23 -46.5t44 -30t69.5 -10.5t69.5 10.5t44 30t23 46.5t6.5 59h138q0 -56 -14.5 -105t-47.5 -86.5t-86.5 -59t-132.5 -21.5zM205 0v856l-106 13q-23 5 -37.5 16.5t-14.5 33.5v81h158v129
q0 165 77 251.5t217 86.5q25 0 44.5 -2.5t38.5 -8.5v-107q0 -17 -15 -22t-41 -5q-68 0 -99.5 -45t-31.5 -148v-129h618v-1000h-196v858h-416v-858h-196z" />
    <glyph glyph-name="f_iogonek.liga" unicode="f&#x12f;" horiz-adv-x="1158" 
d="M205 0v856l-106 13q-23 5 -37.5 16.5t-14.5 33.5v81h158v49q0 93 29.5 171.5t89 135.5t148 88.5t207.5 31.5q38 0 80 -5t71 -15l-7 -102q-2 -20 -25 -21t-64 -1q-91 0 -155 -18t-105 -54t-60 -90.5t-19 -126.5v-43h618v-1000h-23q-20 -11 -40.5 -26t-37 -34t-27 -41.5
t-10.5 -47.5q0 -35 23.5 -56t62.5 -21q22 0 36.5 3.5t24 7t15.5 7t11 3.5q15 0 20 -13l30 -73q-31 -23 -78 -37t-99 -14q-91 0 -141.5 39.5t-50.5 105.5q0 57 38 107.5t100 89.5h-50v858h-416v-858h-196z" />
    <glyph glyph-name="f_dotlessi.liga" unicode="f&#x131;" horiz-adv-x="1159" 
d="M205 0v856l-106 13q-23 5 -37.5 16.5t-14.5 33.5v81h158v129q0 165 77 251.5t217 86.5q25 0 44.5 -2.5t38.5 -8.5v-107q0 -17 -15 -22t-41 -5q-68 0 -99.5 -45t-31.5 -148v-129h618v-1000h-196v858h-416v-858h-196z" />
    <glyph glyph-name="uniFB03" unicode="ffi" horiz-adv-x="1793" 
d="M205 0v856l-106 13q-23 5 -37.5 16.5t-14.5 33.5v81h158v76q0 87 25 155t71.5 115.5t112.5 72t148 24.5q67 0 127 -20l-5 -99q-1 -12 -8 -18.5t-18.5 -9.5t-28 -3.5t-35.5 -0.5q-45 0 -82 -11t-63 -37t-40 -68.5t-14 -105.5v-70h445v49q0 93 29.5 171.5t88.5 135.5
t148 88.5t208 31.5q38 0 79.5 -5t70.5 -15l-7 -102q-2 -20 -25 -21t-63 -1q-91 0 -155.5 -18t-105.5 -54t-60 -90.5t-19 -126.5v-43h618v-1000h-195v858h-417v-858h-195v858h-439v-858h-196z" />
    <glyph glyph-name="f_f_igrave.liga" unicode="ff&#xec;" horiz-adv-x="1792" 
d="M1450 0v858h-416v-858h-196v858h-437v-858h-196v856l-108 13q-23 5 -37 16.5t-14 33.5v81h159v76q0 87 25 155t71.5 115.5t112.5 72t148 24.5q67 0 127 -20l-5 -99q-1 -12 -8 -18.5t-18.5 -9.5t-28 -3.5t-35.5 -0.5q-45 0 -82 -11t-63 -37t-40 -68.5t-14 -105.5v-70h443
v104q0 175 113 271t352 96q153 0 181 -46l157 -261h-111q-23 0 -37.5 6.5t-29.5 23.5l-129 141q-8 1 -16.5 1h-16.5q-70 0 -121.5 -13t-85 -41.5t-50 -73.5t-16.5 -110v-98h618v-1000h-196z" />
    <glyph glyph-name="f_f_icircumflex.liga" unicode="ff&#xee;" horiz-adv-x="1793" 
d="M1452 0v858h-417v-858h-195v858h-439v-858h-196v856l-106 13q-23 5 -37.5 16.5t-14.5 33.5v81h158v76q0 87 25 155t71.5 115.5t112.5 72t148 24.5q67 0 127 -20l-5 -99q-1 -12 -8 -18.5t-18.5 -9.5t-28 -3.5t-35.5 -0.5q-45 0 -82 -11t-63 -37t-40 -68.5t-14 -105.5v-70
h445v129q0 165 77 251.5t217 86.5q24 0 44 -2.5t38 -8.5v-107q0 -17 -14.5 -22t-40.5 -5q-69 0 -100.5 -45t-31.5 -148v-129h618v-1000h-195zM1869 1169h-131q-12 0 -23.5 4t-24.5 16l-117 125q-8 8 -17 20q-9 -12 -17 -20l-119 -125q-10 -10 -22.5 -15t-24.5 -5h-136
l225 267h182z" />
    <glyph glyph-name="f_f_itilde.liga" unicode="ff&#x129;" horiz-adv-x="1793" 
d="M1452 0v858h-417v-858h-195v858h-439v-858h-196v856l-106 13q-23 5 -37.5 16.5t-14.5 33.5v81h158v76q0 87 25 155t71.5 115.5t112.5 72t148 24.5q67 0 127 -20l-5 -99q-1 -12 -8 -18.5t-18.5 -9.5t-28 -3.5t-35.5 -0.5q-45 0 -82 -11t-63 -37t-40 -68.5t-14 -105.5v-70
h445v129q0 165 77 251.5t217 86.5q24 0 44 -2.5t38 -8.5v-107q0 -17 -14.5 -22t-40.5 -5q-69 0 -100.5 -45t-31.5 -148v-129h618v-1000h-195zM1660 1334q34 0 52.5 20t19.5 64h119q0 -50 -13.5 -91t-37.5 -70.5t-58 -45.5t-75 -16q-35 0 -65.5 14t-57.5 31t-51.5 31
t-46.5 14q-33 0 -51.5 -21t-19.5 -64h-121q0 49 13.5 90.5t38.5 70.5t58.5 45.5t74.5 16.5q36 0 66.5 -14t57.5 -30.5l51 -30.5t46 -14z" />
    <glyph glyph-name="f_f_idieresis.liga" unicode="ff&#xef;" horiz-adv-x="1793" 
d="M1496 1290q0 -24 -9.5 -45.5t-26 -37.5t-38.5 -25t-46 -9t-45 9t-37.5 25t-26 37.5t-9.5 45.5q0 25 9.5 47t26 38.5t37.5 26t45 9.5t46 -9.5t38.5 -26t26 -38.5t9.5 -47zM1831 1290q0 -24 -9.5 -45.5t-25.5 -37.5t-38 -25t-46 -9t-46 9t-38 25t-25.5 37.5t-9.5 45.5
q0 25 9.5 47t25.5 38.5t38 26t46 9.5t46 -9.5t38 -26t25.5 -38.5t9.5 -47zM1452 0v858h-417v-858h-195v858h-439v-858h-196v856l-106 13q-23 5 -37.5 16.5t-14.5 33.5v81h158v76q0 87 25 155t71.5 115.5t112.5 72t148 24.5q67 0 127 -20l-5 -99q-1 -12 -8 -18.5t-18.5 -9.5
t-28 -3.5t-35.5 -0.5q-45 0 -82 -11t-63 -37t-40 -68.5t-14 -105.5v-70h445v129q0 165 77 251.5t217 86.5q24 0 44 -2.5t38 -8.5v-107q0 -17 -14.5 -22t-40.5 -5q-69 0 -100.5 -45t-31.5 -148v-129h618v-1000h-195z" />
    <glyph glyph-name="f_f_imacron.liga" unicode="ff&#x12b;" horiz-adv-x="1793" 
d="M1452 0v858h-417v-858h-195v858h-439v-858h-196v856l-106 13q-23 5 -37.5 16.5t-14.5 33.5v81h158v76q0 87 25 155t71.5 115.5t112.5 72t148 24.5q67 0 127 -20l-5 -99q-1 -12 -8 -18.5t-18.5 -9.5t-28 -3.5t-35.5 -0.5q-45 0 -82 -11t-63 -37t-40 -68.5t-14 -105.5v-70
h445v129q0 165 77 251.5t217 86.5q24 0 44 -2.5t38 -8.5v-107q0 -17 -14.5 -22t-40.5 -5q-69 0 -100.5 -45t-31.5 -148v-129h618v-1000h-195zM1263 1354h580v-127h-580v127z" />
    <glyph glyph-name="f_f_ibreve.liga" unicode="ff&#x12d;" horiz-adv-x="1793" 
d="M1452 0v858h-417v-858h-195v858h-439v-858h-196v856l-106 13q-23 5 -37.5 16.5t-14.5 33.5v81h158v76q0 87 25 155t71.5 115.5t112.5 72t148 24.5q67 0 127 -20l-5 -99q-1 -12 -8 -18.5t-18.5 -9.5t-28 -3.5t-35.5 -0.5q-45 0 -82 -11t-63 -37t-40 -68.5t-14 -105.5v-70
h445v129q0 165 77 251.5t217 86.5q24 0 44 -2.5t38 -8.5v-107q0 -17 -14.5 -22t-40.5 -5q-69 0 -100.5 -45t-31.5 -148v-129h618v-1000h-195zM1553 1164q-79 0 -132.5 21.5t-86.5 59t-47.5 86.5t-14.5 105h138q0 -32 6.5 -59t23 -46.5t44 -30t69.5 -10.5t69.5 10.5t44 30
t23 46.5t6.5 59h138q0 -56 -14.5 -105t-47.5 -86.5t-86.5 -59t-132.5 -21.5z" />
    <glyph glyph-name="f_f_iogonek.liga" unicode="ff&#x12f;" horiz-adv-x="1793" 
d="M205 0v856l-106 13q-23 5 -37.5 16.5t-14.5 33.5v81h158v76q0 87 25 155t71.5 115.5t112.5 72t148 24.5q67 0 127 -20l-5 -99q-1 -12 -8 -18.5t-18.5 -9.5t-28 -3.5t-35.5 -0.5q-45 0 -82 -11t-63 -37t-40 -68.5t-14 -105.5v-70h445v49q0 93 29.5 171.5t88.5 135.5
t148 88.5t208 31.5q38 0 79.5 -5t70.5 -15l-7 -102q-2 -20 -25 -21t-63 -1q-91 0 -155.5 -18t-105.5 -54t-60 -90.5t-19 -126.5v-43h618v-1000h-19q-20 -11 -40.5 -26t-37 -34t-27 -41.5t-10.5 -47.5q0 -35 23.5 -56t62.5 -21q22 0 36.5 3.5t24 7t15.5 7t11 3.5q15 0 20 -13
l30 -73q-31 -23 -78 -37t-99 -14q-91 0 -141.5 39.5t-50.5 105.5q0 57 38 107.5t100 89.5h-53v858h-417v-858h-195v858h-439v-858h-196z" />
    <glyph glyph-name="f_f_dotlessi.liga" unicode="ff&#x131;" horiz-adv-x="1793" 
d="M1452 0v858h-417v-858h-195v858h-439v-858h-196v856l-106 13q-23 5 -37.5 16.5t-14.5 33.5v81h158v76q0 87 25 155t71.5 115.5t112.5 72t148 24.5q67 0 127 -20l-5 -99q-1 -12 -8 -18.5t-18.5 -9.5t-28 -3.5t-35.5 -0.5q-45 0 -82 -11t-63 -37t-40 -68.5t-14 -105.5v-70
h445v129q0 165 77 251.5t217 86.5q24 0 44 -2.5t38 -8.5v-107q0 -17 -14.5 -22t-40.5 -5q-69 0 -100.5 -45t-31.5 -148v-129h618v-1000h-195z" />
    <glyph glyph-name="f_j.liga" unicode="fj" horiz-adv-x="1159" 
d="M205 0v856l-106 13q-23 5 -37.5 16.5t-14.5 33.5v81h158v49q0 93 29.5 171.5t89 135.5t148 88.5t207.5 31.5q38 0 80 -5t71 -15l-7 -102q-2 -20 -25 -21t-64 -1q-91 0 -155 -18t-105 -54t-60 -90.5t-19 -126.5v-43h618v-1064q0 -63 -16.5 -117.5t-52.5 -95t-92.5 -63.5
t-135.5 -23q-33 0 -60.5 5t-55.5 14l7 106q2 10 6 14.5t11.5 6.5t20 2h31.5q77 0 109 35.5t32 115.5v922h-416v-858h-196z" />
    <glyph glyph-name="f_f_j.liga" unicode="ffj" horiz-adv-x="1793" 
d="M205 0v856l-106 13q-23 5 -37.5 16.5t-14.5 33.5v81h158v76q0 87 25 155t71.5 115.5t112.5 72t148 24.5q67 0 127 -20l-5 -99q-1 -12 -8 -18.5t-18.5 -9.5t-28 -3.5t-35.5 -0.5q-45 0 -82 -11t-63 -37t-40 -68.5t-14 -105.5v-70h445v49q0 93 29.5 171.5t88.5 135.5
t148 88.5t208 31.5q38 0 79.5 -5t70.5 -15l-7 -102q-2 -20 -25 -21t-63 -1q-91 0 -155.5 -18t-105.5 -54t-60 -90.5t-19 -126.5v-43h618v-1064q0 -63 -16.5 -117.5t-52 -95t-92 -63.5t-136.5 -23q-33 0 -60.5 5t-55.5 14l8 106q4 19 17.5 21t51.5 2q77 0 109 35t32 116v922
h-417v-858h-195v858h-439v-858h-196z" />
    <glyph glyph-name="f_k.liga" unicode="fk" horiz-adv-x="1742" 
d="M204 0v856l-106 13q-23 5 -37.5 16.5t-14.5 33.5v81h158v78q0 91 26.5 168t85 133t150 87.5t222.5 31.5q45 0 85.5 -3.5l82.5 -7.5t87.5 -7.5t101.5 -3.5v-863h46q21 0 35 6t29 24l304 335q14 19 31 28.5t43 9.5h178l-359 -393q-29 -37 -62 -57q19 -13 33.5 -30t28.5 -37
l382 -499h-175q-24 0 -41.5 8t-31.5 29l-314 408q-15 23 -30 29.5t-45 6.5h-52v-481h-195v1341q-42 12 -87 20t-86 8q-73 0 -126.5 -22t-88 -60.5t-51.5 -92t-17 -116.5v-78h285v-142h-279v-858h-196z" />
    <glyph glyph-name="f_f_k.liga" unicode="ffk" horiz-adv-x="2378" 
d="M205 0v856l-106 13q-23 5 -37.5 16.5t-14.5 33.5v81h158v76q0 87 25 155t71.5 115.5t112.5 72t148 24.5q67 0 127 -20l-5 -99q-1 -12 -8 -18.5t-18.5 -9.5t-28 -3.5t-35.5 -0.5q-45 0 -82 -11t-63 -37t-40 -68.5t-14 -105.5v-70h445v78q0 91 26.5 168t84.5 133t150 87.5
t222 31.5q45 0 86 -3.5t82.5 -7.5t87.5 -7.5t102 -3.5v-863h46q21 0 35 6t29 24l304 335q14 19 31 28.5t43 9.5h178l-359 -393q-29 -37 -62 -57q19 -13 33.5 -30t28.5 -37l382 -499h-175q-24 0 -41.5 8t-31.5 29l-314 408q-15 23 -30 29.5t-45 6.5h-52v-481h-195v1341
q-42 12 -87 20t-87 8q-73 0 -126.5 -22t-88 -60.5t-51.5 -92t-17 -116.5v-78h286v-142h-280v-858h-195v858h-439v-858h-196z" />
    <glyph glyph-name="uniFB02" unicode="fl" horiz-adv-x="1190" 
d="M205 0v856l-106 13q-23 5 -37.5 16.5t-14.5 33.5v81h158v50q0 84 26 159t78 132t130.5 90t184.5 33q86 0 163.5 -6.5t152.5 -6.5h109v-1451h-195v1314q-54 2 -107.5 5t-92.5 3q-125 0 -192 -71.5t-67 -200.5v-50h258v-142h-252v-858h-196z" />
    <glyph glyph-name="uniFB04" unicode="ffl" horiz-adv-x="1823" 
d="M204 0v856l-106 13q-23 5 -37.5 16.5t-14.5 33.5v81h158v76q0 87 25 155t71.5 115.5t112 72t147.5 24.5q69 0 127 -20l-4 -99q-1 -12 -8 -18.5t-18.5 -9.5t-28 -3.5t-35.5 -0.5q-45 0 -82 -11t-63 -37t-40 -68.5t-14 -105.5v-70h444v50q0 84 26 159t78.5 132t131 90
t184.5 33q78 0 150.5 -6t141.5 -7h132v-1451h-194v1314q-53 2 -107.5 5t-92.5 3q-125 0 -192.5 -71.5t-67.5 -200.5v-50h285v-142h-279v-858h-196v858h-438v-858h-196z" />
    <glyph glyph-name="f_t.liga" unicode="ft" horiz-adv-x="1380" 
d="M1051 858v-595q0 -60 29 -89.5t76 -29.5q27 0 46.5 7t33.5 15.5t24 15.5t18 7q9 0 15 -4.5t12 -14.5l58 -94q-48 -44 -114.5 -68t-137.5 -24q-123 0 -189.5 69t-66.5 197v608h-455v-858h-196v856l-106 13q-23 5 -37.5 16.5t-14.5 33.5v81h158v92q0 87 25 155t71.5 115.5
t112 72t147.5 24.5q69 0 127 -20l-4 -98q-1 -13 -8 -19.5t-18.5 -9.5t-28 -3.5t-35.5 -0.5q-45 0 -82 -11t-63 -37t-40 -68.5t-14 -105.5v-86h468l45 305q3 17 14.5 26.5t29.5 9.5h100v-341h288v-142h-288z" />
    <glyph glyph-name="f_f_t.liga" unicode="fft" horiz-adv-x="2016" 
d="M205 0v856l-106 13q-23 5 -37.5 16.5t-14.5 33.5v81h158v76q0 87 25 155t71.5 115.5t112.5 72t148 24.5q67 0 127 -20l-5 -99q-1 -12 -8 -18.5t-18.5 -9.5t-28 -3.5t-35.5 -0.5q-45 0 -82 -11t-63 -37t-40 -68.5t-14 -105.5v-70h445v92q0 87 25 155t71.5 115.5t112 72
t147.5 24.5q67 0 127 -20l-4 -98q-1 -13 -8 -19.5t-19 -9.5t-28 -3.5t-36 -0.5q-45 0 -82 -11t-63 -37t-40 -68.5t-14 -105.5v-86h469l44 305q4 17 15.5 26.5t29.5 9.5h100v-341h287v-142h-287v-595q0 -60 29 -89.5t75 -29.5q27 0 46.5 7t33.5 15.5t24 15.5t18 7
q10 0 16 -4.5t12 -14.5l58 -94q-48 -44 -114.5 -68t-137.5 -24q-123 0 -189.5 69t-66.5 197v608h-456v-858h-195v858h-439v-858h-196z" />
    <glyph glyph-name="t_f.liga" unicode="tf" horiz-adv-x="1382" 
d="M880 0v858h-486v-595q0 -60 29.5 -89.5t75.5 -29.5q27 0 46.5 7t33.5 15.5t24 15.5t18 7q10 0 15.5 -4.5t11.5 -14.5l58 -94q-48 -44 -114 -68t-137 -24q-123 0 -189.5 69t-66.5 197v608h-118q-17 0 -28.5 10.5t-11.5 31.5v79l165 23l44 303q4 17 15.5 26.5t29.5 9.5h99
v-341h486v92q0 87 25 155t71.5 115.5t112.5 72t148 24.5q67 0 127 -20l-5 -98q-1 -13 -7.5 -19.5t-18.5 -9.5t-28 -3.5t-36 -0.5q-45 0 -82 -11t-63 -37t-40 -68.5t-14 -105.5v-86h285v-142h-279v-858h-196z" />
    <glyph glyph-name="t_iogonek.liga" unicode="t&#x12f;" horiz-adv-x="1245" 
d="M1000 1196q-27 0 -51 10.5t-42.5 29t-29 43t-10.5 51.5q0 28 10.5 52.5t29 43t42.5 29t51 10.5q28 0 52.5 -10.5t43 -29t29.5 -43t11 -52.5q0 -27 -11 -51.5t-29.5 -43t-43 -29t-52.5 -10.5zM1191 -291q-31 -23 -78 -37t-99 -14q-91 0 -142 39.5t-51 105.5
q0 57 38.5 107.5t100.5 89.5h-56v858h-510v-595q0 -60 29 -89.5t76 -29.5q27 0 46.5 7t33.5 15.5t24 15.5t18 7q9 0 15 -4.5t12 -14.5l58 -94q-48 -44 -114.5 -68t-137.5 -24q-123 0 -189.5 69t-66.5 197v608h-117q-17 0 -29 10.5t-12 31.5v79l166 23l44 303q3 17 14.5 26.5
t29.5 9.5h100v-341h706v-1000h-17q-20 -11 -40.5 -26t-37 -34t-27 -41.5t-10.5 -47.5q0 -35 23.5 -56t62.5 -21q22 0 36 3.5t24 7t16 7t11 3.5q15 0 20 -13z" />
    <glyph glyph-name="t_dotlessi.liga" unicode="t&#x131;" horiz-adv-x="1246" 
d="M1100 0h-196v858h-510v-595q0 -60 29.5 -89.5t75.5 -29.5q27 0 46.5 7t33.5 15.5t24 15.5t18 7q10 0 15.5 -4.5t11.5 -14.5l58 -94q-48 -44 -114 -68t-137 -24q-123 0 -189.5 69t-66.5 197v608h-118q-17 0 -28.5 10.5t-11.5 31.5v79l166 23l43 303q4 17 15.5 26.5
t29.5 9.5h99v-341h706v-1000z" />
    <glyph glyph-name="t_t.liga" unicode="tt" horiz-adv-x="1376" 
d="M455 -16q-123 0 -189.5 69t-66.5 197v608h-118q-17 0 -28.5 10.5t-11.5 31.5v79l165 23l44 303q4 17 15.5 26.5t29.5 9.5h99v-341h464l45 305q3 17 14.5 26.5t29.5 9.5h100v-341h288v-142h-288v-595q0 -60 29 -89.5t76 -29.5q27 0 46.5 7t33.5 15.5t24 15.5t18 7
q9 0 15 -4.5t12 -14.5l58 -94q-48 -44 -114.5 -68t-137.5 -24q-123 0 -189.5 69t-66.5 197v608h-457v-595q0 -60 29.5 -89.5t75.5 -29.5q27 0 46.5 7t33.5 15.5t24 15.5t18 7q10 0 15.5 -4.5t11.5 -14.5l58 -94q-48 -44 -114 -68t-137 -24z" />
    <glyph glyph-name="t_t_f.liga" unicode="ttf" horiz-adv-x="2035" 
d="M2012 1341q-1 -13 -8 -19.5t-18.5 -9.5t-28 -3.5t-35.5 -0.5q-45 0 -82 -11t-63 -37t-40 -68.5t-14 -105.5v-86h285v-142h-279v-858h-196v858h-486v-595q0 -60 29 -89.5t76 -29.5q27 0 46.5 7t33.5 15.5t24 15.5t18 7q9 0 15 -4.5t12 -14.5l58 -94q-48 -44 -114.5 -68
t-137.5 -24q-123 0 -189.5 69t-66.5 197v608h-457v-595q0 -60 29.5 -89.5t75.5 -29.5q27 0 46.5 7t33.5 15.5t24 15.5t18 7q10 0 15.5 -4.5t11.5 -14.5l58 -94q-48 -44 -114 -68t-137 -24q-123 0 -189.5 69t-66.5 197v608h-118q-17 0 -28.5 10.5t-11.5 31.5v79l166 23
l43 303q4 17 15.5 26.5t29.5 9.5h99v-341h464l45 305q3 17 14.5 26.5t29.5 9.5h100v-341h486v92q0 87 25 155t71.5 115.5t112 72t147.5 24.5q69 0 127 -20z" />
    <glyph glyph-name="t_t_iogonek.liga" unicode="tt&#x12f;" horiz-adv-x="1878" 
d="M1633 1196q-27 0 -51 10.5t-42.5 29t-29 43t-10.5 51.5q0 28 10.5 52.5t29 43t42.5 29t51 10.5t52 -10.5t43.5 -29t29.5 -43t11 -52.5q0 -27 -11 -51.5t-29.5 -43t-43.5 -29t-52 -10.5zM1825 -291q-31 -23 -78 -37t-99 -14q-91 0 -141.5 39.5t-50.5 105.5q0 57 38 107.5
t100 89.5h-57v858h-490v-595q0 -60 29 -89.5t75 -29.5q27 0 46.5 7t33.5 15.5t24 15.5t18 7q10 0 16 -4.5t12 -14.5l58 -94q-48 -44 -114.5 -68t-137.5 -24q-123 0 -189.5 69t-66.5 197v608h-457v-595q0 -60 29 -89.5t76 -29.5q27 0 46.5 7t33.5 15.5t24 15.5t18 7
q9 0 15 -4.5t12 -14.5l58 -94q-48 -44 -114.5 -68t-137.5 -24q-123 0 -189.5 69t-66.5 197v608h-117q-17 0 -29 10.5t-12 31.5v79l166 23l44 303q3 17 14.5 26.5t29.5 9.5h100v-341h464l44 305q4 17 15.5 26.5t29.5 9.5h100v-341h685v-1000h-15q-20 -11 -40.5 -26t-37 -34
t-27 -41.5t-10.5 -47.5q0 -35 23.5 -56t62.5 -21q22 0 36.5 3.5t24 7t15.5 7t11 3.5q15 0 20 -13z" />
    <glyph glyph-name="t_t_dotlessi.liga" unicode="tt&#x131;" horiz-adv-x="1879" 
d="M1733 0h-196v858h-490v-595q0 -60 29 -89.5t76 -29.5q27 0 46.5 7t33.5 15.5t24 15.5t18 7q9 0 15 -4.5t12 -14.5l58 -94q-48 -44 -114.5 -68t-137.5 -24q-123 0 -189.5 69t-66.5 197v608h-457v-595q0 -60 29.5 -89.5t75.5 -29.5q27 0 46.5 7t33.5 15.5t24 15.5t18 7
q10 0 15.5 -4.5t11.5 -14.5l58 -94q-48 -44 -114 -68t-137 -24q-123 0 -189.5 69t-66.5 197v608h-118q-17 0 -28.5 10.5t-11.5 31.5v79l166 23l43 303q4 17 15.5 26.5t29.5 9.5h99v-341h464l45 305q3 17 14.5 26.5t29.5 9.5h100v-341h686v-1000z" />
    <glyph glyph-name="f_uni01D0.liga" unicode="f&#x1d0;" horiz-adv-x="1158" 
d="M205 0v856l-106 13q-23 5 -37.5 16.5t-14.5 33.5v81h158v129q0 165 77 251.5t217 86.5q25 0 44.5 -2.5t38.5 -8.5v-107q0 -17 -15 -22t-41 -5q-68 0 -99.5 -45t-31.5 -148v-129h618v-1000h-196v858h-416v-858h-196zM1010 1169h-181l-207 267h135q13 0 25.5 -4t17.5 -11
l104 -130q5 -8 9.5 -16t8.5 -17q7 18 18 33l104 130q6 8 18.5 11.5t24.5 3.5h131z" />
    <glyph glyph-name="f_uni0209.liga" unicode="f&#x209;" horiz-adv-x="1158" 
d="M532 1467q34 0 58.5 -3t42.5 -9.5t32 -18.5t26 -30l179 -242h-93q-23 0 -37.5 6.5t-28.5 23.5l-120 127q-55 -2 -92.5 -12.5t-60.5 -33t-33 -58.5t-10 -88v-129h618v-1000h-196v858h-416v-858h-196v856l-106 13q-23 5 -37.5 16.5t-14.5 33.5v81h158v129q0 83 24 146
t67 106t103.5 64.5t132.5 21.5zM917 1452q35 0 52.5 -11.5t30.5 -34.5l135 -242h-81q-23 0 -38 6.5t-28 23.5l-200 258h129z" />
    <glyph glyph-name="f_uni020B.liga" unicode="f&#x20b;" horiz-adv-x="1158" 
d="M205 0v856l-106 13q-23 5 -37.5 16.5t-14.5 33.5v81h158v129q0 165 77 251.5t217 86.5q25 0 44.5 -2.5t38.5 -8.5v-107q0 -17 -15 -22t-41 -5q-68 0 -99.5 -45t-31.5 -148v-129h618v-1000h-196v858h-416v-858h-196zM920 1446q79 0 132.5 -21.5t86.5 -59t47.5 -87
t14.5 -104.5h-137q0 32 -7 59t-23.5 46.5t-44 30t-69.5 10.5t-69.5 -10.5t-44 -30t-23 -46.5t-6.5 -59h-137q0 55 14 104.5t47 87t86.5 59t132.5 21.5z" />
    <glyph glyph-name="f_uni1E2F.liga" unicode="f&#x1e2f;" horiz-adv-x="1158" 
d="M862 1208q0 -22 -9 -41t-24 -33.5t-35 -23t-42 -8.5q-21 0 -40.5 8.5t-34 23t-23 33.5t-8.5 41t8.5 42t23 35t34 24t40.5 9q22 0 42 -9t35 -24t24 -35t9 -42zM1195 1208q0 -22 -8.5 -41t-23.5 -33.5t-35 -23t-42 -8.5t-41.5 8.5t-34 23t-23 33.5t-8.5 41t8.5 42t23 35
t34 24t41.5 9t42 -9t35 -24t23.5 -35t8.5 -42zM1242 1594l-219 -220q-17 -15 -35 -22t-43 -7h-106l130 202q14 23 30.5 35t51.5 12h191zM205 0v856l-106 13q-23 5 -37.5 16.5t-14.5 33.5v81h158v129q0 165 77 251.5t217 86.5q25 0 44.5 -2.5t38.5 -8.5v-107q0 -17 -15 -22
t-41 -5q-68 0 -99.5 -45t-31.5 -148v-129h618v-1000h-196v858h-416v-858h-196z" />
    <glyph glyph-name="f_f_uni01D0.liga" unicode="ff&#x1d0;" horiz-adv-x="1793" 
d="M1452 0v858h-417v-858h-195v858h-439v-858h-196v856l-106 13q-23 5 -37.5 16.5t-14.5 33.5v81h158v76q0 87 25 155t71.5 115.5t112.5 72t148 24.5q67 0 127 -20l-5 -99q-1 -12 -8 -18.5t-18.5 -9.5t-28 -3.5t-35.5 -0.5q-45 0 -82 -11t-63 -37t-40 -68.5t-14 -105.5v-70
h445v129q0 165 77 251.5t217 86.5q24 0 44 -2.5t38 -8.5v-107q0 -17 -14.5 -22t-40.5 -5q-69 0 -100.5 -45t-31.5 -148v-129h618v-1000h-195zM1640 1169h-182l-207 267h135q13 0 25.5 -4t17.5 -11l104 -130q5 -8 9.5 -16t8.5 -17q7 18 18 33l105 130q5 8 17.5 11.5t24.5 3.5
h131z" />
    <glyph glyph-name="f_f_uni0209.liga" unicode="ff&#x209;" horiz-adv-x="1793" 
d="M1452 0v858h-417v-858h-195v858h-439v-858h-196v856l-106 13q-23 5 -37.5 16.5t-14.5 33.5v81h158v76q0 87 25 155t71.5 115.5t112.5 72t148 24.5q67 0 127 -20l-5 -99q-1 -12 -8 -18.5t-18.5 -9.5t-28 -3.5t-35.5 -0.5q-45 0 -82 -11t-63 -37t-40 -68.5t-14 -105.5v-70
h445v129q0 165 85 251.5t250 86.5q34 0 58.5 -3t42.5 -9.5t32 -18.5t26 -30l179 -242h-93q-23 0 -37 7t-29 23l-120 127q-56 -2 -94.5 -12.5t-63.5 -33t-36 -58.5t-11 -88v-129h618v-1000h-195zM1561 1452q35 0 52.5 -11.5t30.5 -34.5l135 -242h-81q-23 0 -38 6.5t-28 23.5
l-200 258h129z" />
    <glyph glyph-name="f_f_uni020B.liga" unicode="ff&#x20b;" horiz-adv-x="1793" 
d="M205 0v856l-106 13q-23 5 -37.5 16.5t-14.5 33.5v81h158v76q0 87 25 155t71.5 115.5t112.5 72t148 24.5q67 0 127 -20l-5 -99q-1 -12 -8 -18.5t-18.5 -9.5t-28 -3.5t-35.5 -0.5q-45 0 -82 -11t-63 -37t-40 -68.5t-14 -105.5v-70h445v129q0 165 77 251.5t217 86.5
q24 0 44 -2.5t38 -8.5v-107q0 -17 -14.5 -22t-40.5 -5q-69 0 -100.5 -45t-31.5 -148v-129h618v-1000h-195v858h-417v-858h-195v858h-439v-858h-196zM1544 1446q79 0 132.5 -21.5t86.5 -59t47.5 -87t14.5 -104.5h-138q0 32 -6.5 59t-23 46.5t-44 30t-69.5 10.5t-69.5 -10.5
t-44 -30t-23 -46.5t-6.5 -59h-138q0 55 14.5 104.5t47.5 87t86.5 59t132.5 21.5z" />
    <glyph glyph-name="f_f_uni1E2F.liga" unicode="ff&#x1e2f;" horiz-adv-x="1793" 
d="M205 0v856l-106 13q-23 5 -37.5 16.5t-14.5 33.5v81h158v76q0 87 25 155t71.5 115.5t112.5 72t148 24.5q67 0 127 -20l-5 -99q-1 -12 -8 -18.5t-18.5 -9.5t-28 -3.5t-35.5 -0.5q-45 0 -82 -11t-63 -37t-40 -68.5t-14 -105.5v-70h445v129q0 165 77 251.5t217 86.5
q24 0 44 -2.5t38 -8.5v-107q0 -17 -14.5 -22t-40.5 -5q-69 0 -100.5 -45t-31.5 -148v-129h618v-1000h-195v858h-417v-858h-195v858h-439v-858h-196zM1876 1594l-219 -220q-17 -15 -35 -22t-43 -7h-106l130 202q14 23 30.5 35t51.5 12h191zM1829 1208q0 -22 -8.5 -41
t-23.5 -33.5t-35 -23t-42 -8.5t-41.5 8.5t-34 23t-23 33.5t-8.5 41t8.5 42t23 35t34 24t41.5 9t42 -9t35 -24t23.5 -35t8.5 -42zM1496 1208q0 -22 -9 -41t-24 -33.5t-35 -23t-42 -8.5q-21 0 -40.5 8.5t-34 23t-23 33.5t-8.5 41t8.5 42t23 35t34 24t40.5 9q22 0 42 -9t35 -24
t24 -35t9 -42z" />
    <glyph glyph-name="f_uni0237.liga" unicode="f&#x237;" horiz-adv-x="1159" 
d="M205 0v856l-106 13q-23 5 -37.5 16.5t-14.5 33.5v81h158v129q0 165 77 251.5t217 86.5q25 0 44.5 -2.5t38.5 -8.5v-107q0 -17 -15 -22t-41 -5q-68 0 -99.5 -45t-31.5 -148v-129h618v-1064q0 -63 -16.5 -117.5t-52.5 -95t-92.5 -63.5t-135.5 -23q-33 0 -60.5 5t-55.5 14
l7 106q2 10 6 14.5t11.5 6.5t20 2h31.5q77 0 109 35.5t32 115.5v922h-416v-858h-196z" />
    <glyph glyph-name="f_f_uni0237.liga" unicode="ff&#x237;" horiz-adv-x="1793" 
d="M205 0v856l-106 13q-23 5 -37.5 16.5t-14.5 33.5v81h158v76q0 87 25 155t71.5 115.5t112.5 72t148 24.5q67 0 127 -20l-5 -99q-1 -12 -8 -18.5t-18.5 -9.5t-28 -3.5t-35.5 -0.5q-45 0 -82 -11t-63 -37t-40 -68.5t-14 -105.5v-70h445v129q0 165 77 251.5t217 86.5
q24 0 44 -2.5t38 -8.5v-107q0 -17 -14.5 -22t-40.5 -5q-69 0 -100.5 -45t-31.5 -148v-129h618v-1064q0 -63 -16.5 -117.5t-52 -95t-92 -63.5t-136.5 -23q-33 0 -60.5 5t-55.5 14l8 106q4 19 17.5 21t51.5 2q77 0 109 35t32 116v922h-417v-858h-195v858h-439v-858h-196z" />
    <glyph glyph-name="f_jcircumflex.liga" unicode="f&#x135;" horiz-adv-x="1159" 
d="M205 0v856l-106 13q-23 5 -37.5 16.5t-14.5 33.5v81h158v129q0 165 77 251.5t217 86.5q25 0 44.5 -2.5t38.5 -8.5v-107q0 -17 -15 -22t-41 -5q-68 0 -99.5 -45t-31.5 -148v-129h618v-1064q0 -63 -16.5 -117.5t-52.5 -95t-92.5 -63.5t-135.5 -23q-33 0 -60.5 5t-55.5 14
l7 106q2 10 6 14.5t11.5 6.5t20 2h31.5q77 0 109 35.5t32 115.5v922h-416v-858h-196zM1233 1169h-131q-12 0 -23.5 4t-24.5 16l-117 125q-8 8 -17 20q-9 -12 -17 -20l-119 -125q-10 -10 -22.5 -15t-24.5 -5h-136l225 267h182z" />
    <glyph glyph-name="f_lcaron.liga" unicode="f&#x13e;" horiz-adv-x="1190" 
d="M205 0v856l-106 13q-23 5 -37.5 16.5t-14.5 33.5v81h158v50q0 84 26 159t78 132t130.5 90t184.5 33q86 0 163.5 -6.5t152.5 -6.5h109v-1451h-195v1314q-54 2 -107.5 5t-92.5 3q-125 0 -192 -71.5t-67 -200.5v-50h258v-142h-252v-858h-196zM1352 1478q23 0 29 -11t6 -23
q0 -9 -3.5 -25.5t-13 -46t-26 -75l-42.5 -113.5q-11 -23 -27 -30.5t-43 -7.5h-68l58 332h130z" />
    <glyph glyph-name="f_lcommaaccent.liga" unicode="f&#x13c;" horiz-adv-x="1190" 
d="M205 0v856l-106 13q-23 5 -37.5 16.5t-14.5 33.5v81h158v50q0 84 26 159t78 132t130.5 90t184.5 33q86 0 163.5 -6.5t152.5 -6.5h109v-1451h-195v1314q-54 2 -107.5 5t-92.5 3q-125 0 -192 -71.5t-67 -200.5v-50h258v-142h-252v-858h-196zM1005 -94q23 0 29 -11t6 -23
q0 -10 -2.5 -26.5t-9.5 -43t-20 -64t-33 -89.5q-11 -23 -27 -30.5t-42 -7.5h-69l50 295h118z" />
    <glyph glyph-name="f_uni021B.liga" unicode="f&#x21b;" horiz-adv-x="1380" 
d="M1051 858v-595q0 -60 29 -89.5t76 -29.5q27 0 46.5 7t33.5 15.5t24 15.5t18 7q9 0 15 -4.5t12 -14.5l58 -94q-48 -44 -114.5 -68t-137.5 -24q-123 0 -189.5 69t-66.5 197v608h-455v-858h-196v856l-106 13q-23 5 -37.5 16.5t-14.5 33.5v81h158v92q0 87 25 155t71.5 115.5
t112 72t147.5 24.5q69 0 127 -20l-4 -98q-1 -13 -8 -19.5t-18.5 -9.5t-28 -3.5t-35.5 -0.5q-45 0 -82 -11t-63 -37t-40 -68.5t-14 -105.5v-86h468l45 305q3 17 14.5 26.5t29.5 9.5h100v-341h288v-142h-288zM1144 -94q23 0 29 -11t6 -23q0 -10 -2.5 -26.5t-9.5 -43t-20 -64
t-33 -89.5q-11 -23 -27 -30.5t-42 -7.5h-69l50 295h118z" />
    <glyph glyph-name="f_tcaron.liga" unicode="f&#x165;" horiz-adv-x="1380" 
d="M1051 858v-595q0 -60 29 -89.5t76 -29.5q27 0 46.5 7t33.5 15.5t24 15.5t18 7q9 0 15 -4.5t12 -14.5l58 -94q-48 -44 -114.5 -68t-137.5 -24q-123 0 -189.5 69t-66.5 197v608h-455v-858h-196v856l-106 13q-23 5 -37.5 16.5t-14.5 33.5v81h158v92q0 87 25 155t71.5 115.5
t112 72t147.5 24.5q69 0 127 -20l-4 -98q-1 -13 -8 -19.5t-18.5 -9.5t-28 -3.5t-35.5 -0.5q-45 0 -82 -11t-63 -37t-40 -68.5t-14 -105.5v-86h468l45 305q3 17 14.5 26.5t29.5 9.5h100v-341h288v-142h-288zM1443 1478q23 0 29 -11t6 -23q0 -9 -3.5 -25.5t-13 -46t-26 -75
l-42.5 -113.5q-11 -23 -27 -30.5t-43 -7.5h-68l58 332h130z" />
    <glyph glyph-name="f_uni1ECB.liga" unicode="f&#x1ecb;" horiz-adv-x="1159" 
d="M205 0v856l-106 13q-23 5 -37.5 16.5t-14.5 33.5v81h158v49q0 93 29.5 171.5t89 135.5t148 88.5t207.5 31.5q38 0 80 -5t71 -15l-7 -102q-2 -20 -25 -21t-64 -1q-91 0 -155 -18t-105 -54t-60 -90.5t-19 -126.5v-43h618v-1000h-196v858h-416v-858h-196zM1035 -246
q0 -24 -10 -46t-26.5 -38t-38.5 -25.5t-46 -9.5t-45.5 9.5t-37.5 25.5t-25.5 38t-9.5 46q0 25 9.5 47t25.5 38.5t37.5 26t45.5 9.5t46 -9.5t38.5 -26t26.5 -38.5t10 -47z" />
    <glyph glyph-name="f_uni1E2D.liga" unicode="f&#x1e2d;" horiz-adv-x="1159" 
d="M205 0v856l-106 13q-23 5 -37.5 16.5t-14.5 33.5v81h158v49q0 93 29.5 171.5t89 135.5t148 88.5t207.5 31.5q38 0 80 -5t71 -15l-7 -102q-2 -20 -25 -21t-64 -1q-91 0 -155 -18t-105 -54t-60 -90.5t-19 -126.5v-43h618v-1000h-196v858h-416v-858h-196zM1020 -171
q34 0 52.5 20t19.5 64h119q0 -50 -13.5 -91t-37.5 -70.5t-58 -45.5t-75 -16q-35 0 -65.5 14t-57.5 31t-51.5 31t-46.5 14q-33 0 -51.5 -21t-19.5 -64h-121q0 49 13.5 90.5t38.5 70.5t58.5 45.5t74.5 16.5q36 0 66.5 -14t57.5 -30.5l51 -30.5t46 -14z" />
    <glyph glyph-name="f_uni0268.liga" unicode="f&#x268;" horiz-adv-x="1197" 
d="M817 567v291h-416v-858h-196v856l-106 13q-23 5 -37.5 16.5t-14.5 33.5v81h158v49q0 93 29.5 171.5t89 135.5t148 88.5t207.5 31.5q38 0 80 -5t71 -15l-7 -102q-2 -20 -25 -21t-64 -1q-91 0 -155 -18t-105 -54t-60 -90.5t-19 -126.5v-43h618v-433h150v-142h-150v-425
h-196v425h-149v142h149z" />
    <glyph glyph-name="f_iacute.liga" unicode="f&#xed;" horiz-adv-x="1158" 
d="M205 0v856l-106 13q-23 5 -37.5 16.5t-14.5 33.5v81h158v129q0 165 77 251.5t217 86.5q25 0 44.5 -2.5t38.5 -8.5v-107q0 -17 -15 -22t-41 -5q-68 0 -99.5 -45t-31.5 -148v-129h618v-1000h-196v858h-416v-858h-196zM1219 1452l-237 -258q-15 -17 -29 -23.5t-37 -6.5h-118
l148 242q14 23 30.5 34.5t51.5 11.5h191z" />
    <glyph glyph-name="f_uni1EC9.liga" unicode="f&#x1ec9;" horiz-adv-x="1159" 
d="M205 0v856l-106 13q-23 5 -37.5 16.5t-14.5 33.5v81h158v129q0 165 77 251.5t217 86.5q25 0 44.5 -2.5t38.5 -8.5v-107q0 -17 -15 -22t-41 -5q-68 0 -99.5 -45t-31.5 -148v-129h618v-1000h-196v858h-416v-858h-196zM720 1425q31 23 80.5 37t106.5 14q94 0 138.5 -37
t44.5 -92q0 -50 -33.5 -87t-84.5 -57l-18 -83h-94v137q53 7 72.5 26.5t19.5 42.5t-16 39.5t-54 16.5q-20 0 -35 -4.5t-27 -9.5t-21 -9.5t-17 -4.5q-9 0 -14.5 5t-10.5 13z" />
    <glyph glyph-name="f_f_uni1ECB.liga" unicode="ff&#x1ecb;" horiz-adv-x="1793" 
d="M205 0v856l-106 13q-23 5 -37.5 16.5t-14.5 33.5v81h158v76q0 87 25 155t71.5 115.5t112.5 72t148 24.5q67 0 127 -20l-5 -99q-1 -12 -8 -18.5t-18.5 -9.5t-28 -3.5t-35.5 -0.5q-45 0 -82 -11t-63 -37t-40 -68.5t-14 -105.5v-70h445v49q0 93 29.5 171.5t88.5 135.5
t148 88.5t208 31.5q38 0 79.5 -5t70.5 -15l-7 -102q-2 -20 -25 -21t-63 -1q-91 0 -155.5 -18t-105.5 -54t-60 -90.5t-19 -126.5v-43h618v-1000h-195v858h-417v-858h-195v858h-439v-858h-196zM1673 -246q0 -24 -10 -46t-26.5 -38t-38.5 -25.5t-46 -9.5t-45.5 9.5t-37.5 25.5
t-25.5 38t-9.5 46q0 25 9.5 47t25.5 38.5t37.5 26t45.5 9.5t46 -9.5t38.5 -26t26.5 -38.5t10 -47z" />
    <glyph glyph-name="f_f_uni1E2D.liga" unicode="ff&#x1e2d;" horiz-adv-x="1793" 
d="M205 0v856l-106 13q-23 5 -37.5 16.5t-14.5 33.5v81h158v76q0 87 25 155t71.5 115.5t112.5 72t148 24.5q67 0 127 -20l-5 -99q-1 -12 -8 -18.5t-18.5 -9.5t-28 -3.5t-35.5 -0.5q-45 0 -82 -11t-63 -37t-40 -68.5t-14 -105.5v-70h445v49q0 93 29.5 171.5t88.5 135.5
t148 88.5t208 31.5q38 0 79.5 -5t70.5 -15l-7 -102q-2 -20 -25 -21t-63 -1q-91 0 -155.5 -18t-105.5 -54t-60 -90.5t-19 -126.5v-43h618v-1000h-195v858h-417v-858h-195v858h-439v-858h-196zM1658 -171q34 0 52.5 20t19.5 64h119q0 -50 -13.5 -91t-37.5 -70.5t-58 -45.5
t-75 -16q-35 0 -65.5 14t-57.5 31t-51.5 31t-46.5 14q-33 0 -51.5 -21t-19.5 -64h-121q0 49 13.5 90.5t38.5 70.5t58.5 45.5t74.5 16.5q36 0 66.5 -14t57.5 -30.5l51 -30.5t46 -14z" />
    <glyph glyph-name="f_f_uni0268.liga" unicode="ff&#x268;" horiz-adv-x="1835" 
d="M1452 567v291h-417v-858h-195v858h-439v-858h-196v856l-106 13q-23 5 -37.5 16.5t-14.5 33.5v81h158v76q0 87 25 155t71.5 115.5t112.5 72t148 24.5q67 0 127 -20l-5 -99q-1 -12 -8 -18.5t-18.5 -9.5t-28 -3.5t-35.5 -0.5q-45 0 -82 -11t-63 -37t-40 -68.5t-14 -105.5
v-70h445v49q0 93 29.5 171.5t88.5 135.5t148 88.5t208 31.5q38 0 79.5 -5t70.5 -15l-7 -102q-2 -20 -25 -21t-63 -1q-91 0 -155.5 -18t-105.5 -54t-60 -90.5t-19 -126.5v-43h618v-433h152v-142h-152v-425h-195v425h-148v142h148z" />
    <glyph glyph-name="f_f_iacute.liga" unicode="ff&#xed;" horiz-adv-x="1793" 
d="M1452 0v858h-417v-858h-195v858h-439v-858h-196v856l-106 13q-23 5 -37.5 16.5t-14.5 33.5v81h158v76q0 87 25 155t71.5 115.5t112.5 72t148 24.5q67 0 127 -20l-5 -99q-1 -12 -8 -18.5t-18.5 -9.5t-28 -3.5t-35.5 -0.5q-45 0 -82 -11t-63 -37t-40 -68.5t-14 -105.5v-70
h445v129q0 165 77 251.5t217 86.5q24 0 44 -2.5t38 -8.5v-107q0 -17 -14.5 -22t-40.5 -5q-69 0 -100.5 -45t-31.5 -148v-129h618v-1000h-195zM1857 1452l-237 -258q-15 -17 -29 -23.5t-37 -6.5h-118l148 242q14 23 30.5 34.5t51.5 11.5h191z" />
    <glyph glyph-name="f_f_uni1EC9.liga" unicode="ff&#x1ec9;" horiz-adv-x="1783" 
d="M1452 0v858h-417v-858h-195v858h-439v-858h-196v856l-106 13q-23 5 -37.5 16.5t-14.5 33.5v81h158v76q0 87 25 155t71.5 115.5t112.5 72t148 24.5q67 0 127 -20l-5 -99q-1 -12 -8 -18.5t-18.5 -9.5t-28 -3.5t-35.5 -0.5q-45 0 -82 -11t-63 -37t-40 -68.5t-14 -105.5v-70
h445v129q0 165 77 251.5t217 86.5q24 0 44 -2.5t38 -8.5v-107q0 -17 -14.5 -22t-40.5 -5q-69 0 -100.5 -45t-31.5 -148v-129h618v-1000h-195zM1358 1425q31 23 80.5 37t106.5 14q94 0 138.5 -37t44.5 -92q0 -50 -33.5 -87t-84.5 -57l-18 -83h-94v137q53 7 72.5 26.5
t19.5 42.5t-16 39.5t-54 16.5q-20 0 -35 -4.5t-27 -9.5t-21 -9.5t-17 -4.5q-9 0 -14.5 5t-10.5 13z" />
    <glyph glyph-name="f_lacute.liga" unicode="f&#x13a;" horiz-adv-x="1190" 
d="M205 0v856l-106 13q-23 5 -37.5 16.5t-14.5 33.5v81h158v50q0 84 26 159t78 132t130.5 90t184.5 33q86 0 163.5 -6.5t152.5 -6.5h109v-1451h-195v1314q-54 2 -107.5 5t-92.5 3q-125 0 -192 -71.5t-67 -200.5v-50h258v-142h-252v-858h-196zM1343 1854l-326 -286
q-17 -14 -31 -18t-37 -4h-141l226 274q9 12 17.5 18.5t18.5 10t23 4.5t30 1h220z" />
    <glyph glyph-name="t_i.liga" unicode="ti" horiz-adv-x="1246" 
d="M1100 0h-196v858h-510v-595q0 -60 29.5 -89.5t75.5 -29.5q27 0 46.5 7t33.5 15.5t24 15.5t18 7q10 0 15.5 -4.5t11.5 -14.5l58 -94q-48 -44 -114 -68t-137 -24q-123 0 -189.5 69t-66.5 197v608h-118q-17 0 -28.5 10.5t-11.5 31.5v79l166 23l43 303q4 17 15.5 26.5
t29.5 9.5h99v-341h706v-1000zM1144 1336q0 -27 -11 -51.5t-29.5 -43t-43.5 -29t-52 -10.5t-51 10.5t-42.5 29t-29 43t-10.5 51.5q0 28 10.5 53t29 43.5t42.5 29t51 10.5t52 -10.5t43.5 -29t29.5 -43.5t11 -53z" />
    <glyph glyph-name="t_igrave.liga" unicode="t&#xec;" horiz-adv-x="1246" 
d="M1100 0h-196v858h-510v-595q0 -60 29.5 -89.5t75.5 -29.5q27 0 46.5 7t33.5 15.5t24 15.5t18 7q10 0 15.5 -4.5t11.5 -14.5l58 -94q-48 -44 -114 -68t-137 -24q-123 0 -189.5 69t-66.5 197v608h-118q-17 0 -28.5 10.5t-11.5 31.5v79l166 23l43 303q4 17 15.5 26.5
t29.5 9.5h99v-341h706v-1000zM912 1452q35 0 52 -11.5t31 -34.5l147 -242h-111q-23 0 -37.5 6.5t-29.5 23.5l-237 258h185z" />
    <glyph glyph-name="t_iacute.liga" unicode="t&#xed;" horiz-adv-x="1244" 
d="M1098 0h-196v858h-510v-595q0 -60 29.5 -89.5t75.5 -29.5q27 0 46.5 7t33.5 15.5t24 15.5t18 7q10 0 15.5 -4.5t11.5 -14.5l58 -94q-48 -44 -114 -68t-137 -24q-123 0 -189.5 69t-66.5 197v608h-118q-17 0 -28.5 10.5t-11.5 31.5v79l166 23l43 303q4 17 15.5 26.5
t29.5 9.5h99v-341h706v-1000zM1312 1452l-237 -258q-15 -17 -29 -23.5t-37 -6.5h-118l148 242q14 23 30.5 34.5t51.5 11.5h191z" />
    <glyph glyph-name="t_icircumflex.liga" unicode="t&#xee;" horiz-adv-x="1246" 
d="M1100 0h-196v858h-510v-595q0 -60 29.5 -89.5t75.5 -29.5q27 0 46.5 7t33.5 15.5t24 15.5t18 7q10 0 15.5 -4.5t11.5 -14.5l58 -94q-48 -44 -114 -68t-137 -24q-123 0 -189.5 69t-66.5 197v608h-118q-17 0 -28.5 10.5t-11.5 31.5v79l166 23l43 303q4 17 15.5 26.5
t29.5 9.5h99v-341h706v-1000zM1325 1169h-131q-12 0 -23.5 4t-24.5 16l-117 125q-8 8 -17 20q-9 -12 -17 -20l-119 -125q-10 -10 -22.5 -15t-24.5 -5h-136l225 267h182z" />
    <glyph glyph-name="t_idieresis.liga" unicode="t&#xef;" horiz-adv-x="1246" 
d="M1100 0h-196v858h-510v-595q0 -60 29.5 -89.5t75.5 -29.5q27 0 46.5 7t33.5 15.5t24 15.5t18 7q10 0 15.5 -4.5t11.5 -14.5l58 -94q-48 -44 -114 -68t-137 -24q-123 0 -189.5 69t-66.5 197v608h-118q-17 0 -28.5 10.5t-11.5 31.5v79l166 23l43 303q4 17 15.5 26.5
t29.5 9.5h99v-341h706v-1000zM969 1290q0 -24 -10 -45.5t-26.5 -37.5t-38.5 -25t-46 -9t-45 9t-37 25t-25.5 37.5t-9.5 45.5q0 25 9.5 47t25.5 38.5t37 26t45 9.5t46 -9.5t38.5 -26t26.5 -38.5t10 -47zM1287 1290q0 -24 -9.5 -45.5t-25.5 -37.5t-38 -25t-46 -9t-46 9t-38 25
t-25.5 37.5t-9.5 45.5q0 25 9.5 47t25.5 38.5t38 26t46 9.5t46 -9.5t38 -26t25.5 -38.5t9.5 -47z" />
    <glyph glyph-name="t_imacron.liga" unicode="t&#x12b;" horiz-adv-x="1246" 
d="M1100 0h-196v858h-510v-595q0 -60 29.5 -89.5t75.5 -29.5q27 0 46.5 7t33.5 15.5t24 15.5t18 7q10 0 15.5 -4.5t11.5 -14.5l58 -94q-48 -44 -114 -68t-137 -24q-123 0 -189.5 69t-66.5 197v608h-118q-17 0 -28.5 10.5t-11.5 31.5v79l166 23l43 303q4 17 15.5 26.5
t29.5 9.5h99v-341h706v-1000zM719 1354h580v-127h-580v127z" />
    <glyph glyph-name="t_itilde.liga" unicode="t&#x129;" horiz-adv-x="1244" 
d="M1098 0h-196v858h-510v-595q0 -60 29.5 -89.5t75.5 -29.5q27 0 46.5 7t33.5 15.5t24 15.5t18 7q10 0 15.5 -4.5t11.5 -14.5l58 -94q-48 -44 -114 -68t-137 -24q-123 0 -189.5 69t-66.5 197v608h-118q-17 0 -28.5 10.5t-11.5 31.5v79l166 23l43 303q4 17 15.5 26.5
t29.5 9.5h99v-341h706v-1000zM1117 1334q34 0 52.5 20t19.5 64h119q0 -50 -13.5 -91t-37.5 -70.5t-58 -45.5t-75 -16q-35 0 -65.5 14t-57.5 31t-51.5 31t-46.5 14q-33 0 -51.5 -21t-19.5 -64h-121q0 49 13.5 90.5t38.5 70.5t58.5 45.5t74.5 16.5q36 0 66.5 -14t57.5 -30.5
l51 -30.5t46 -14z" />
    <glyph glyph-name="t_ibreve.liga" unicode="t&#x12d;" horiz-adv-x="1246" 
d="M1100 0h-196v858h-510v-595q0 -60 29.5 -89.5t75.5 -29.5q27 0 46.5 7t33.5 15.5t24 15.5t18 7q10 0 15.5 -4.5t11.5 -14.5l58 -94q-48 -44 -114 -68t-137 -24q-123 0 -189.5 69t-66.5 197v608h-118q-17 0 -28.5 10.5t-11.5 31.5v79l166 23l43 303q4 17 15.5 26.5
t29.5 9.5h99v-341h706v-1000zM1009 1164q-79 0 -132.5 21.5t-86.5 59t-47.5 86.5t-14.5 105h138q0 -32 6.5 -59t23 -46.5t44 -30t69.5 -10.5t69.5 10.5t44 30t23 46.5t6.5 59h138q0 -56 -14.5 -105t-47.5 -86.5t-86.5 -59t-132.5 -21.5z" />
    <glyph glyph-name="t_uni01D0.liga" unicode="t&#x1d0;" horiz-adv-x="1246" 
d="M1100 0h-196v858h-510v-595q0 -60 29.5 -89.5t75.5 -29.5q27 0 46.5 7t33.5 15.5t24 15.5t18 7q10 0 15.5 -4.5t11.5 -14.5l58 -94q-48 -44 -114 -68t-137 -24q-123 0 -189.5 69t-66.5 197v608h-118q-17 0 -28.5 10.5t-11.5 31.5v79l166 23l43 303q4 17 15.5 26.5
t29.5 9.5h99v-341h706v-1000zM1325 1436l-225 -267h-182l-225 267h136q12 0 23.5 -4.5t18.5 -10.5l122 -130q9 -9 18 -21q9 12 18 21l123 130q7 5 18.5 10t23.5 5h131z" />
    <glyph glyph-name="t_uni1E2D.liga" unicode="t&#x1e2d;" horiz-adv-x="1244" 
d="M1098 0h-196v858h-510v-595q0 -60 29.5 -89.5t75.5 -29.5q27 0 46.5 7t33.5 15.5t24 15.5t18 7q10 0 15.5 -4.5t11.5 -14.5l58 -94q-48 -44 -114 -68t-137 -24q-123 0 -189.5 69t-66.5 197v608h-118q-17 0 -28.5 10.5t-11.5 31.5v79l166 23l43 303q4 17 15.5 26.5
t29.5 9.5h99v-341h706v-1000zM1142 1336q0 -27 -11 -51.5t-29.5 -43t-43.5 -29t-52 -10.5t-51 10.5t-42.5 29t-29 43t-10.5 51.5q0 28 10.5 53t29 43.5t42.5 29t51 10.5t52 -10.5t43.5 -29t29.5 -43.5t11 -53zM1112 -171q34 0 52.5 20t19.5 64h119q0 -50 -13.5 -91
t-37.5 -70.5t-58 -45.5t-75 -16q-35 0 -65.5 14t-57.5 31t-51.5 31t-46.5 14q-33 0 -51.5 -21t-19.5 -64h-121q0 49 13.5 90.5t38.5 70.5t58.5 45.5t74.5 16.5q36 0 66.5 -14t57.5 -30.5l51 -30.5t46 -14z" />
    <glyph glyph-name="t_uni1E2F.liga" unicode="t&#x1e2f;" horiz-adv-x="1244" 
d="M1098 0h-196v858h-510v-595q0 -60 29.5 -89.5t75.5 -29.5q27 0 46.5 7t33.5 15.5t24 15.5t18 7q10 0 15.5 -4.5t11.5 -14.5l58 -94q-48 -44 -114 -68t-137 -24q-123 0 -189.5 69t-66.5 197v608h-118q-17 0 -28.5 10.5t-11.5 31.5v79l166 23l43 303q4 17 15.5 26.5
t29.5 9.5h99v-341h706v-1000zM1355 1768l-237 -258q-15 -17 -29 -23.5t-37 -6.5h-118l148 242q14 23 30.5 34.5t51.5 11.5h191zM933 1290q0 -24 -10 -45.5t-26.5 -37.5t-38.5 -25t-46 -9t-45 9t-37 25t-25.5 37.5t-9.5 45.5q0 25 9.5 47t25.5 38.5t37 26t45 9.5t46 -9.5
t38.5 -26t26.5 -38.5t10 -47zM1319 1290q0 -24 -9.5 -45.5t-25.5 -37.5t-38 -25t-46 -9t-46 9t-38 25t-25.5 37.5t-9.5 45.5q0 25 9.5 47t25.5 38.5t38 26t46 9.5t46 -9.5t38 -26t25.5 -38.5t9.5 -47z" />
    <glyph glyph-name="t_uni0268.liga" unicode="t&#x268;" horiz-adv-x="1295" 
d="M1008 1202q-27 0 -51 10.5t-42.5 29t-29 43t-10.5 51.5q0 28 10.5 53t29 43.5t42.5 29t51 10.5t52 -10.5t43.5 -29t29.5 -43.5t11 -53q0 -27 -11 -51.5t-29.5 -43t-43.5 -29t-52 -10.5zM1256 425h-156v-425h-196v425h-143v142h143v291h-510v-595q0 -60 29.5 -89.5
t75.5 -29.5q27 0 46.5 7t33.5 15.5t24 15.5t18 7q10 0 15.5 -4.5t11.5 -14.5l58 -94q-48 -44 -114 -68t-137 -24q-123 0 -189.5 69t-66.5 197v608h-118q-17 0 -28.5 10.5t-11.5 31.5v79l166 23l43 303q4 17 15.5 26.5t29.5 9.5h99v-341h706v-433h156v-142z" />
    <glyph glyph-name="t_uni020B.liga" unicode="t&#x20b;" horiz-adv-x="1246" 
d="M1100 0h-196v858h-510v-595q0 -60 29.5 -89.5t75.5 -29.5q27 0 46.5 7t33.5 15.5t24 15.5t18 7q10 0 15.5 -4.5t11.5 -14.5l58 -94q-48 -44 -114 -68t-137 -24q-123 0 -189.5 69t-66.5 197v608h-118q-17 0 -28.5 10.5t-11.5 31.5v79l166 23l43 303q4 17 15.5 26.5
t29.5 9.5h99v-341h706v-1000zM1009 1451q79 0 132.5 -21.5t86.5 -59t47.5 -87t14.5 -104.5h-138q0 32 -6.5 59t-23 46.5t-44 30t-69.5 10.5t-69.5 -10.5t-44 -30t-23 -46.5t-6.5 -59h-138q0 55 14.5 104.5t47.5 87t86.5 59t132.5 21.5z" />
    <glyph glyph-name="t_uni0209.liga" unicode="t&#x209;" horiz-adv-x="1246" 
d="M1100 0h-196v858h-510v-595q0 -60 29.5 -89.5t75.5 -29.5q27 0 46.5 7t33.5 15.5t24 15.5t18 7q10 0 15.5 -4.5t11.5 -14.5l58 -94q-48 -44 -114 -68t-137 -24q-123 0 -189.5 69t-66.5 197v608h-118q-17 0 -28.5 10.5t-11.5 31.5v79l166 23l43 303q4 17 15.5 26.5
t29.5 9.5h99v-341h706v-1000zM1018 1452q35 0 52.5 -11.5t30.5 -34.5l135 -242h-81q-23 0 -38 6.5t-28 23.5l-200 258h129zM709 1452q17 0 29.5 -3t21.5 -9t16.5 -14.5t15.5 -19.5l179 -242h-93q-23 0 -37.5 6.5t-28.5 23.5l-245 258h142z" />
    <glyph glyph-name="t_t_i.liga" unicode="tti" horiz-adv-x="1878" 
d="M1733 0h-196v858h-490v-595q0 -60 29 -89.5t76 -29.5q27 0 46.5 7t33.5 15.5t24 15.5t18 7q9 0 15 -4.5t12 -14.5l58 -94q-48 -44 -114.5 -68t-137.5 -24q-123 0 -189.5 69t-66.5 197v608h-457v-595q0 -60 29.5 -89.5t75.5 -29.5q27 0 46.5 7t33.5 15.5t24 15.5t18 7
q10 0 15.5 -4.5t11.5 -14.5l58 -94q-48 -44 -114 -68t-137 -24q-123 0 -189.5 69t-66.5 197v608h-118q-17 0 -28.5 10.5t-11.5 31.5v79l166 23l43 303q4 17 15.5 26.5t29.5 9.5h99v-341h464l45 305q3 17 14.5 26.5t29.5 9.5h100v-341h686v-1000zM1773 1336q0 -27 -11 -51.5
t-29.5 -43t-43.5 -29t-52 -10.5t-51 10.5t-42.5 29t-29 43t-10.5 51.5q0 28 10.5 53t29 43.5t42.5 29t51 10.5t52 -10.5t43.5 -29t29.5 -43.5t11 -53z" />
    <glyph glyph-name="t_t_igrave.liga" unicode="tt&#xec;" horiz-adv-x="1878" 
d="M1733 0h-196v858h-490v-595q0 -60 29 -89.5t76 -29.5q27 0 46.5 7t33.5 15.5t24 15.5t18 7q9 0 15 -4.5t12 -14.5l58 -94q-48 -44 -114.5 -68t-137.5 -24q-123 0 -189.5 69t-66.5 197v608h-457v-595q0 -60 29.5 -89.5t75.5 -29.5q27 0 46.5 7t33.5 15.5t24 15.5t18 7
q10 0 15.5 -4.5t11.5 -14.5l58 -94q-48 -44 -114 -68t-137 -24q-123 0 -189.5 69t-66.5 197v608h-118q-17 0 -28.5 10.5t-11.5 31.5v79l166 23l43 303q4 17 15.5 26.5t29.5 9.5h99v-341h464l45 305q3 17 14.5 26.5t29.5 9.5h100v-341h686v-1000zM1541 1452q35 0 52 -11.5
t31 -34.5l147 -242h-111q-23 0 -37.5 6.5t-29.5 23.5l-237 258h185z" />
    <glyph glyph-name="t_t_iacute.liga" unicode="tt&#xed;" horiz-adv-x="1877" 
d="M1731 0h-196v858h-490v-595q0 -60 29 -89.5t76 -29.5q27 0 46.5 7t33.5 15.5t24 15.5t18 7q9 0 15 -4.5t12 -14.5l58 -94q-48 -44 -114.5 -68t-137.5 -24q-123 0 -189.5 69t-66.5 197v608h-457v-595q0 -60 29.5 -89.5t75.5 -29.5q27 0 46.5 7t33.5 15.5t24 15.5t18 7
q10 0 15.5 -4.5t11.5 -14.5l58 -94q-48 -44 -114 -68t-137 -24q-123 0 -189.5 69t-66.5 197v608h-118q-17 0 -28.5 10.5t-11.5 31.5v79l166 23l43 303q4 17 15.5 26.5t29.5 9.5h99v-341h464l45 305q3 17 14.5 26.5t29.5 9.5h100v-341h686v-1000zM1941 1452l-237 -258
q-15 -17 -29 -23.5t-37 -6.5h-118l148 242q14 23 30.5 34.5t51.5 11.5h191z" />
    <glyph glyph-name="t_t_icircumflex.liga" unicode="tt&#xee;" horiz-adv-x="1878" 
d="M1733 0h-196v858h-490v-595q0 -60 29 -89.5t76 -29.5q27 0 46.5 7t33.5 15.5t24 15.5t18 7q9 0 15 -4.5t12 -14.5l58 -94q-48 -44 -114.5 -68t-137.5 -24q-123 0 -189.5 69t-66.5 197v608h-457v-595q0 -60 29.5 -89.5t75.5 -29.5q27 0 46.5 7t33.5 15.5t24 15.5t18 7
q10 0 15.5 -4.5t11.5 -14.5l58 -94q-48 -44 -114 -68t-137 -24q-123 0 -189.5 69t-66.5 197v608h-118q-17 0 -28.5 10.5t-11.5 31.5v79l166 23l43 303q4 17 15.5 26.5t29.5 9.5h99v-341h464l45 305q3 17 14.5 26.5t29.5 9.5h100v-341h686v-1000zM1954 1169h-131
q-12 0 -23.5 4t-24.5 16l-117 125q-8 8 -17 20q-9 -12 -17 -20l-119 -125q-10 -10 -22.5 -15t-24.5 -5h-136l225 267h182z" />
    <glyph glyph-name="t_t_idieresis.liga" unicode="tt&#xef;" horiz-adv-x="1878" 
d="M1733 0h-196v858h-490v-595q0 -60 29 -89.5t76 -29.5q27 0 46.5 7t33.5 15.5t24 15.5t18 7q9 0 15 -4.5t12 -14.5l58 -94q-48 -44 -114.5 -68t-137.5 -24q-123 0 -189.5 69t-66.5 197v608h-457v-595q0 -60 29.5 -89.5t75.5 -29.5q27 0 46.5 7t33.5 15.5t24 15.5t18 7
q10 0 15.5 -4.5t11.5 -14.5l58 -94q-48 -44 -114 -68t-137 -24q-123 0 -189.5 69t-66.5 197v608h-118q-17 0 -28.5 10.5t-11.5 31.5v79l166 23l43 303q4 17 15.5 26.5t29.5 9.5h99v-341h464l45 305q3 17 14.5 26.5t29.5 9.5h100v-341h686v-1000zM1598 1290q0 -24 -10 -45.5
t-26.5 -37.5t-38.5 -25t-46 -9t-45 9t-37 25t-25.5 37.5t-9.5 45.5q0 25 9.5 47t25.5 38.5t37 26t45 9.5t46 -9.5t38.5 -26t26.5 -38.5t10 -47zM1916 1290q0 -24 -9.5 -45.5t-25.5 -37.5t-38 -25t-46 -9t-46 9t-38 25t-25.5 37.5t-9.5 45.5q0 25 9.5 47t25.5 38.5t38 26
t46 9.5t46 -9.5t38 -26t25.5 -38.5t9.5 -47z" />
    <glyph glyph-name="t_t_imacron.liga" unicode="tt&#x12b;" horiz-adv-x="1878" 
d="M1733 0h-196v858h-490v-595q0 -60 29 -89.5t76 -29.5q27 0 46.5 7t33.5 15.5t24 15.5t18 7q9 0 15 -4.5t12 -14.5l58 -94q-48 -44 -114.5 -68t-137.5 -24q-123 0 -189.5 69t-66.5 197v608h-457v-595q0 -60 29.5 -89.5t75.5 -29.5q27 0 46.5 7t33.5 15.5t24 15.5t18 7
q10 0 15.5 -4.5t11.5 -14.5l58 -94q-48 -44 -114 -68t-137 -24q-123 0 -189.5 69t-66.5 197v608h-118q-17 0 -28.5 10.5t-11.5 31.5v79l166 23l43 303q4 17 15.5 26.5t29.5 9.5h99v-341h464l45 305q3 17 14.5 26.5t29.5 9.5h100v-341h686v-1000zM1348 1354h580v-127h-580
v127z" />
    <glyph glyph-name="t_t_itilde.liga" unicode="tt&#x129;" horiz-adv-x="1877" 
d="M1731 0h-196v858h-490v-595q0 -60 29 -89.5t76 -29.5q27 0 46.5 7t33.5 15.5t24 15.5t18 7q9 0 15 -4.5t12 -14.5l58 -94q-48 -44 -114.5 -68t-137.5 -24q-123 0 -189.5 69t-66.5 197v608h-457v-595q0 -60 29.5 -89.5t75.5 -29.5q27 0 46.5 7t33.5 15.5t24 15.5t18 7
q10 0 15.5 -4.5t11.5 -14.5l58 -94q-48 -44 -114 -68t-137 -24q-123 0 -189.5 69t-66.5 197v608h-118q-17 0 -28.5 10.5t-11.5 31.5v79l166 23l43 303q4 17 15.5 26.5t29.5 9.5h99v-341h464l45 305q3 17 14.5 26.5t29.5 9.5h100v-341h686v-1000zM1746 1334q34 0 52.5 20
t19.5 64h119q0 -50 -13.5 -91t-37.5 -70.5t-58 -45.5t-75 -16q-35 0 -65.5 14t-57.5 31t-51.5 31t-46.5 14q-33 0 -51.5 -21t-19.5 -64h-121q0 49 13.5 90.5t38.5 70.5t58.5 45.5t74.5 16.5q36 0 66.5 -14t57.5 -30.5l51 -30.5t46 -14z" />
    <glyph glyph-name="t_t_ibreve.liga" unicode="tt&#x12d;" horiz-adv-x="1878" 
d="M1733 0h-196v858h-490v-595q0 -60 29 -89.5t76 -29.5q27 0 46.5 7t33.5 15.5t24 15.5t18 7q9 0 15 -4.5t12 -14.5l58 -94q-48 -44 -114.5 -68t-137.5 -24q-123 0 -189.5 69t-66.5 197v608h-457v-595q0 -60 29.5 -89.5t75.5 -29.5q27 0 46.5 7t33.5 15.5t24 15.5t18 7
q10 0 15.5 -4.5t11.5 -14.5l58 -94q-48 -44 -114 -68t-137 -24q-123 0 -189.5 69t-66.5 197v608h-118q-17 0 -28.5 10.5t-11.5 31.5v79l166 23l43 303q4 17 15.5 26.5t29.5 9.5h99v-341h464l45 305q3 17 14.5 26.5t29.5 9.5h100v-341h686v-1000zM1638 1164
q-79 0 -132.5 21.5t-86.5 59t-47.5 86.5t-14.5 105h138q0 -32 6.5 -59t23 -46.5t44 -30t69.5 -10.5t69.5 10.5t44 30t23 46.5t6.5 59h138q0 -56 -14.5 -105t-47.5 -86.5t-86.5 -59t-132.5 -21.5z" />
    <glyph glyph-name="t_t_uni01D0.liga" unicode="tt&#x1d0;" horiz-adv-x="1878" 
d="M1733 0h-196v858h-490v-595q0 -60 29 -89.5t76 -29.5q27 0 46.5 7t33.5 15.5t24 15.5t18 7q9 0 15 -4.5t12 -14.5l58 -94q-48 -44 -114.5 -68t-137.5 -24q-123 0 -189.5 69t-66.5 197v608h-457v-595q0 -60 29.5 -89.5t75.5 -29.5q27 0 46.5 7t33.5 15.5t24 15.5t18 7
q10 0 15.5 -4.5t11.5 -14.5l58 -94q-48 -44 -114 -68t-137 -24q-123 0 -189.5 69t-66.5 197v608h-118q-17 0 -28.5 10.5t-11.5 31.5v79l166 23l43 303q4 17 15.5 26.5t29.5 9.5h99v-341h464l45 305q3 17 14.5 26.5t29.5 9.5h100v-341h686v-1000zM1954 1436l-225 -267h-182
l-225 267h136q12 0 23.5 -4.5t18.5 -10.5l122 -130q9 -9 18 -21q9 12 18 21l123 130q7 5 18.5 10t23.5 5h131z" />
    <glyph glyph-name="t_t_uni1E2D.liga" unicode="tt&#x1e2d;" horiz-adv-x="1877" 
d="M1731 0h-196v858h-490v-595q0 -60 29 -89.5t76 -29.5q27 0 46.5 7t33.5 15.5t24 15.5t18 7q9 0 15 -4.5t12 -14.5l58 -94q-48 -44 -114.5 -68t-137.5 -24q-123 0 -189.5 69t-66.5 197v608h-457v-595q0 -60 29.5 -89.5t75.5 -29.5q27 0 46.5 7t33.5 15.5t24 15.5t18 7
q10 0 15.5 -4.5t11.5 -14.5l58 -94q-48 -44 -114 -68t-137 -24q-123 0 -189.5 69t-66.5 197v608h-118q-17 0 -28.5 10.5t-11.5 31.5v79l166 23l43 303q4 17 15.5 26.5t29.5 9.5h99v-341h464l45 305q3 17 14.5 26.5t29.5 9.5h100v-341h686v-1000zM1743 -171q34 0 52.5 20
t19.5 64h119q0 -50 -13.5 -91t-37.5 -70.5t-58 -45.5t-75 -16q-35 0 -65.5 14t-57.5 31t-51.5 31t-46.5 14q-33 0 -51.5 -21t-19.5 -64h-121q0 49 13.5 90.5t38.5 70.5t58.5 45.5t74.5 16.5q36 0 66.5 -14t57.5 -30.5l51 -30.5t46 -14zM1771 1336q0 -27 -11 -51.5t-29.5 -43
t-43.5 -29t-52 -10.5t-51 10.5t-42.5 29t-29 43t-10.5 51.5q0 28 10.5 53t29 43.5t42.5 29t51 10.5t52 -10.5t43.5 -29t29.5 -43.5t11 -53z" />
    <glyph glyph-name="t_t_uni1E2F.liga" unicode="tt&#x1e2f;" horiz-adv-x="1877" 
d="M1731 0h-196v858h-490v-595q0 -60 29 -89.5t76 -29.5q27 0 46.5 7t33.5 15.5t24 15.5t18 7q9 0 15 -4.5t12 -14.5l58 -94q-48 -44 -114.5 -68t-137.5 -24q-123 0 -189.5 69t-66.5 197v608h-457v-595q0 -60 29.5 -89.5t75.5 -29.5q27 0 46.5 7t33.5 15.5t24 15.5t18 7
q10 0 15.5 -4.5t11.5 -14.5l58 -94q-48 -44 -114 -68t-137 -24q-123 0 -189.5 69t-66.5 197v608h-118q-17 0 -28.5 10.5t-11.5 31.5v79l166 23l43 303q4 17 15.5 26.5t29.5 9.5h99v-341h464l45 305q3 17 14.5 26.5t29.5 9.5h100v-341h686v-1000zM1985 1768l-237 -258
q-15 -17 -29 -23.5t-37 -6.5h-118l148 242q14 23 30.5 34.5t51.5 11.5h191zM1562 1290q0 -24 -10 -45.5t-26.5 -37.5t-38.5 -25t-46 -9t-45 9t-37 25t-25.5 37.5t-9.5 45.5q0 25 9.5 47t25.5 38.5t37 26t45 9.5t46 -9.5t38.5 -26t26.5 -38.5t10 -47zM1948 1290
q0 -24 -9.5 -45.5t-25.5 -37.5t-38 -25t-46 -9t-46 9t-38 25t-25.5 37.5t-9.5 45.5q0 25 9.5 47t25.5 38.5t38 26t46 9.5t46 -9.5t38 -26t25.5 -38.5t9.5 -47z" />
    <glyph glyph-name="t_t_uni0268.liga" unicode="tt&#x268;" horiz-adv-x="1924" 
d="M1637 1202q-27 0 -51 10.5t-42.5 29t-29 43t-10.5 51.5q0 28 10.5 53t29 43.5t42.5 29t51 10.5t52 -10.5t43.5 -29t29.5 -43.5t11 -53q0 -27 -11 -51.5t-29.5 -43t-43.5 -29t-52 -10.5zM1887 425h-154v-425h-196v425h-145v142h145v291h-490v-595q0 -60 29 -89.5t76 -29.5
q27 0 46.5 7t33.5 15.5t24 15.5t18 7q9 0 15 -4.5t12 -14.5l58 -94q-48 -44 -114.5 -68t-137.5 -24q-123 0 -189.5 69t-66.5 197v608h-457v-595q0 -60 29.5 -89.5t75.5 -29.5q27 0 46.5 7t33.5 15.5t24 15.5t18 7q10 0 15.5 -4.5t11.5 -14.5l58 -94q-48 -44 -114 -68
t-137 -24q-123 0 -189.5 69t-66.5 197v608h-118q-17 0 -28.5 10.5t-11.5 31.5v79l166 23l43 303q4 17 15.5 26.5t29.5 9.5h99v-341h464l45 305q3 17 14.5 26.5t29.5 9.5h100v-341h686v-433h154v-142z" />
    <glyph glyph-name="t_t_uni020B.liga" unicode="tt&#x20b;" horiz-adv-x="1878" 
d="M1733 0h-196v858h-490v-595q0 -60 29 -89.5t76 -29.5q27 0 46.5 7t33.5 15.5t24 15.5t18 7q9 0 15 -4.5t12 -14.5l58 -94q-48 -44 -114.5 -68t-137.5 -24q-123 0 -189.5 69t-66.5 197v608h-457v-595q0 -60 29.5 -89.5t75.5 -29.5q27 0 46.5 7t33.5 15.5t24 15.5t18 7
q10 0 15.5 -4.5t11.5 -14.5l58 -94q-48 -44 -114 -68t-137 -24q-123 0 -189.5 69t-66.5 197v608h-118q-17 0 -28.5 10.5t-11.5 31.5v79l166 23l43 303q4 17 15.5 26.5t29.5 9.5h99v-341h464l45 305q3 17 14.5 26.5t29.5 9.5h100v-341h686v-1000zM1638 1451q79 0 132.5 -21.5
t86.5 -59t47.5 -87t14.5 -104.5h-138q0 32 -6.5 59t-23 46.5t-44 30t-69.5 10.5t-69.5 -10.5t-44 -30t-23 -46.5t-6.5 -59h-138q0 55 14.5 104.5t47.5 87t86.5 59t132.5 21.5z" />
    <glyph glyph-name="t_t_uni0209.liga" unicode="tt&#x209;" horiz-adv-x="1878" 
d="M1733 0h-196v858h-490v-595q0 -60 29 -89.5t76 -29.5q27 0 46.5 7t33.5 15.5t24 15.5t18 7q9 0 15 -4.5t12 -14.5l58 -94q-48 -44 -114.5 -68t-137.5 -24q-123 0 -189.5 69t-66.5 197v608h-457v-595q0 -60 29.5 -89.5t75.5 -29.5q27 0 46.5 7t33.5 15.5t24 15.5t18 7
q10 0 15.5 -4.5t11.5 -14.5l58 -94q-48 -44 -114 -68t-137 -24q-123 0 -189.5 69t-66.5 197v608h-118q-17 0 -28.5 10.5t-11.5 31.5v79l166 23l43 303q4 17 15.5 26.5t29.5 9.5h99v-341h464l45 305q3 17 14.5 26.5t29.5 9.5h100v-341h686v-1000zM1647 1452q35 0 52.5 -11.5
t30.5 -34.5l135 -242h-81q-23 0 -38 6.5t-28 23.5l-200 258h129zM1338 1452q17 0 29.5 -3t21.5 -9t16.5 -14.5t15.5 -19.5l179 -242h-93q-23 0 -37.5 6.5t-28.5 23.5l-245 258h142z" />
    <glyph glyph-name=".notdef" horiz-adv-x="1071" 
d="M247 1143q26 22 55.5 41t64.5 33.5t75 23t87 8.5q64 0 117 -18t90 -50.5t57.5 -79t20.5 -103.5q0 -55 -14.5 -94.5t-37 -69t-49 -51l-50.5 -40.5t-41.5 -37t-21.5 -41l-18 -103h-133l-14 117q-5 35 8 60.5t35 47t49 41t50.5 42t39.5 50.5t16 67q0 47 -33.5 74.5
t-87.5 27.5q-39 0 -66.5 -8.5t-47 -18.5t-33.5 -18.5t-26 -8.5q-27 0 -40 24zM393 298q0 24 9 45.5t24.5 37.5t36.5 25t46 9q24 0 45 -9t36.5 -25t24.5 -37.5t9 -45.5q0 -25 -9 -46.5t-24.5 -37t-36.5 -24.5t-45 -9q-25 0 -46 9t-36.5 24.5t-24.5 37t-9 46.5zM44 1436h983
v-1436h-983v1436zM98 58h869v1320h-869v-1320z" />
    <glyph glyph-name="glyph1" horiz-adv-x="0" 
 />
    <glyph glyph-name="glyph1" horiz-adv-x="0" 
 />
    <glyph glyph-name="space" unicode=" " horiz-adv-x="505" 
 />
    <glyph glyph-name="space" unicode="&#xa0;" horiz-adv-x="505" 
 />
    <glyph glyph-name="A" unicode="A" horiz-adv-x="1363" 
d="M940 535l-213 557q-23 57 -46 144q-11 -43 -22.5 -80t-22.5 -66l-212 -555h516zM1361 0h-164q-28 0 -46 14t-26 36l-127 333h-633l-127 -333q-7 -19 -26 -34.5t-46 -15.5h-164l572 1436h215z" />
    <glyph glyph-name="Aogonek" unicode="&#x104;" horiz-adv-x="1361" 
d="M939 535l-213 557q-23 57 -46 144q-11 -43 -22.5 -80t-22.5 -66l-212 -555h516zM1427 -291q-31 -23 -78 -37t-99 -14q-91 0 -141.5 39.5t-50.5 105.5q0 57 38 107.5t100 89.5q-28 0 -46 14t-26 36l-127 333h-633l-127 -333q-7 -19 -26 -34.5t-46 -15.5h-164l572 1436h215
l572 -1436h-41q-20 -11 -40.5 -26t-37 -34t-27 -41.5t-10.5 -47.5q0 -35 23.5 -56t62.5 -21q22 0 36.5 3.5t24 7t15.5 7t11 3.5q15 0 20 -13z" />
    <glyph glyph-name="AE" unicode="&#xc6;" horiz-adv-x="1862" 
d="M931 535l-92 740q-26 -84 -59 -152l-299 -588h450zM1777 173l-1 -173h-779l-47 383h-547l-170 -334q-11 -22 -31.5 -35.5t-49.5 -13.5h-162l751 1436h1035v-173h-735l57 -455h546v-167h-525l58 -468h600z" />
    <glyph glyph-name="B" unicode="B" horiz-adv-x="1299" 
d="M690 169q81 0 138.5 19t94 52t53.5 78.5t17 99.5q0 107 -74 168.5t-229 61.5h-300v-479h300zM390 1269v-470h245q157 0 233.5 63.5t76.5 171.5q0 123 -73 179t-227 56h-255zM645 1436q135 0 231.5 -26t158.5 -75t91.5 -118.5t29.5 -157.5q0 -52 -16 -100t-49 -89.5
t-83 -74.5t-118 -55q313 -62 313 -327q0 -92 -34 -167.5t-99 -130.5t-160 -85t-216 -30h-517v1436h468z" />
    <glyph glyph-name="C" unicode="C" horiz-adv-x="1333" 
d="M1180 308q18 0 31 -14l84 -92q-88 -104 -214.5 -161t-304.5 -57q-156 0 -282.5 54t-216 151t-138.5 232t-49 297t51.5 297t144.5 232t222.5 151t286.5 54q153 0 272 -50t207 -133l-70 -99q-7 -11 -17.5 -18t-27.5 -7q-19 0 -44.5 19t-67 42.5t-102.5 42.5t-152 19
q-107 0 -196 -37.5t-153.5 -108t-100 -173t-35.5 -231.5q0 -131 37 -233t102 -173t153 -108t190 -37q62 0 111.5 7.5t91 22.5t78.5 38.5t73 56.5q8 7 17 11.5t19 4.5z" />
    <glyph glyph-name="Ccedilla" unicode="&#xc7;" horiz-adv-x="1333" 
d="M1295 202q-81 -95 -194.5 -151.5t-269.5 -65.5l-16 -56q93 -20 133.5 -55.5t40.5 -89.5q0 -33 -16.5 -59t-46 -44t-71 -28t-90.5 -10q-41 0 -77.5 7.5t-68.5 21.5l18 61q6 19 25 19q6 0 14 -3.5t18.5 -7t25.5 -7t35 -3.5q39 0 59.5 16t20.5 40q0 36 -40.5 50.5
t-117.5 24.5l41 124q-143 10 -259 68t-198 154t-126.5 225.5t-44.5 284.5q0 162 51.5 297t144.5 232t222.5 151t286.5 54q153 0 272 -50t207 -133l-70 -99q-7 -11 -17.5 -18t-27.5 -7q-19 0 -44.5 19t-67 42.5t-102.5 42.5t-152 19q-107 0 -196 -37.5t-153.5 -108t-100 -173
t-35.5 -231.5q0 -131 37 -233t102 -173t153 -108t190 -37q62 0 111.5 7.5t91 22.5t78.5 38.5t73 56.5q8 7 17 11.5t19 4.5q18 0 31 -14z" />
    <glyph glyph-name="D" unicode="D" horiz-adv-x="1521" 
d="M1430 718q0 -161 -51.5 -293t-145.5 -226.5t-225 -146.5t-291 -52h-540v1436h540q160 0 291 -52t225 -146.5t145.5 -227t51.5 -292.5zM1212 718q0 128 -35 229.5t-99.5 172t-156 107.5t-204.5 37h-326v-1092h326q113 0 204.5 37t156 107.5t99.5 171.5t35 230z" />
    <glyph glyph-name="Eth" unicode="&#xd0;" horiz-adv-x="1538" 
d="M734 172q113 0 204.5 37t156 107.5t99.5 171.5t35 230q0 128 -35 229.5t-99.5 172t-156 107.5t-204.5 37h-326v-478h284v-124h-284v-490h326zM734 1436q160 0 291 -52t225 -146.5t145.5 -227t51.5 -292.5q0 -161 -51.5 -293t-145.5 -226.5t-225 -146.5t-291 -52h-540v662
h-192v124h192v650h540z" />
    <glyph glyph-name="E" unicode="E" horiz-adv-x="1154" 
d="M1068 173l-1 -173h-890v1436h890v-173h-676v-455h544v-167h-544v-468h677z" />
    <glyph glyph-name="Eogonek" unicode="&#x118;" horiz-adv-x="1154" 
d="M1084 -291q-31 -23 -78 -37t-99 -14q-91 0 -141.5 39.5t-50.5 105.5q0 57 38 107.5t100 89.5h-676v1436h890v-173h-676v-455h544v-167h-544v-468h677l-1 -173h-91q-20 -11 -40.5 -26t-37 -34t-27 -41.5t-10.5 -47.5q0 -35 23.5 -56t62.5 -21q22 0 36.5 3.5t24 7t15.5 7
t11 3.5q15 0 20 -13z" />
    <glyph glyph-name="F" unicode="F" horiz-adv-x="1131" 
d="M391 1263v-481h576v-173h-576v-609h-214v1436h890v-173h-676z" />
    <glyph glyph-name="G" unicode="G" horiz-adv-x="1459" 
d="M1349 699v-560q-109 -78 -232 -116.5t-268 -38.5q-174 0 -314.5 54t-239.5 151t-152.5 232t-53.5 297q0 163 51.5 298.5t147.5 232t232.5 150t306.5 53.5q86 0 159.5 -13t136.5 -37t116.5 -57.5t99.5 -75.5l-61 -96q-14 -23 -37 -29t-50 11q-26 15 -57.5 35t-75 37
t-101.5 29t-137 12q-118 0 -213 -38.5t-162 -110.5t-103 -173.5t-36 -227.5q0 -132 38 -236.5t107.5 -177t169 -110.5t222.5 -38q48 0 89.5 5.5t79.5 15.5t73.5 25t70.5 33v301h-212q-20 0 -32.5 12t-12.5 30v121h450z" />
    <glyph glyph-name="H" unicode="H" horiz-adv-x="1531" 
d="M1353 1436v-1436h-213v647h-749v-647h-214v1436h214v-634h749v634h213z" />
    <glyph glyph-name="Hbar" unicode="&#x126;" horiz-adv-x="1547" 
d="M1148 1037h-749v-235h749v235zM1521 1037h-160v-1037h-213v647h-749v-647h-214v1037h-160v127h160v272h214v-272h749v272h213v-272h160v-127z" />
    <glyph glyph-name="I" unicode="I" horiz-adv-x="568" 
d="M391 0h-214v1436h214v-1436z" />
    <glyph glyph-name="Iogonek" unicode="&#x12e;" horiz-adv-x="569" 
d="M468 -291q-31 -23 -78 -37t-99 -14q-91 0 -141.5 39.5t-50.5 105.5q0 57 38 107.5t100 89.5h-59v1436h214v-1436h-32q-20 -11 -40.5 -26t-37 -34t-27 -41.5t-10.5 -47.5q0 -35 23.5 -56t62.5 -21q22 0 36.5 3.5t24 7t15.5 7t11 3.5q15 0 20 -13z" />
    <glyph glyph-name="J" unicode="J" horiz-adv-x="849" 
d="M686 500q0 -120 -30 -216t-87.5 -162.5t-143 -102t-196.5 -35.5q-100 0 -206 28l12 126q2 18 13.5 29.5t34.5 11.5q17 0 46.5 -8.5t77.5 -8.5q64 0 113.5 19t83.5 59.5t51.5 103.5t17.5 151v941h213v-936z" />
    <glyph glyph-name="K" unicode="K" horiz-adv-x="1337" 
d="M390 815h70q38 0 61.5 9.5t42.5 32.5l457 531q22 27 45 37.5t57 10.5h182l-532 -612q-20 -26 -39.5 -42t-40.5 -27q55 -19 96 -77l553 -678h-185q-20 0 -34.5 3t-25 8.5t-19 13.5t-15.5 19l-473 560q-10 13 -20 22t-23 14.5t-30 8t-40 2.5h-87v-651h-213v1436h213v-621z
" />
    <glyph glyph-name="L" unicode="L" horiz-adv-x="1030" 
d="M999 179v-179h-822v1436h213v-1257h609z" />
    <glyph glyph-name="Lslash" unicode="&#x141;" horiz-adv-x="1059" 
d="M1028 179v-179h-822v546l-184 -94v148q0 29 26 42l158 83v711h213v-614l378 192v-144q0 -36 -29 -47l-349 -182v-462h609z" />
    <glyph glyph-name="Lcaron" unicode="&#x13d;" horiz-adv-x="1030" 
d="M999 179v-179h-822v1436h213v-1257h609zM755 1478q23 0 29 -11t6 -23q0 -9 -3.5 -25.5t-13 -46t-26 -75l-42.5 -113.5q-11 -23 -27 -30.5t-43 -7.5h-68l58 332h130z" />
    <glyph glyph-name="M" unicode="M" horiz-adv-x="1865" 
d="M1687 1436v-1436h-186v1022q0 23 1.5 49t3.5 53l-478 -877q-25 -49 -77 -49h-30q-52 0 -76 49l-487 880q6 -56 6 -105v-1022h-187v1436h158q28 0 43.5 -5.5t29.5 -30.5l480 -860q14 -26 26 -55l23 -58q21 59 49 114l471 859q13 25 28.5 30.5t43.5 5.5h158z" />
    <glyph glyph-name="N" unicode="N" horiz-adv-x="1531" 
d="M1353 1436v-1436h-108q-25 0 -41.5 9t-33.5 29l-811 1049q2 -27 3.5 -53t1.5 -49v-985h-187v1436h110q28 0 42 -6.5t31 -29.5l813 -1050q-3 29 -4.5 56.5t-1.5 51.5v978h186z" />
    <glyph glyph-name="Eng" unicode="&#x14a;" horiz-adv-x="1531" 
d="M1353 1436v-1420q0 -83 -19 -152t-59.5 -118.5t-104 -76.5t-152.5 -27q-49 0 -89 9t-85 28l21 86q7 24 18.5 31.5t25.5 7.5t34 -7t57 -7q81 0 123.5 50t42.5 153v50l-807 1044q2 -27 3.5 -53t1.5 -49v-985h-187v1436h110q28 0 42 -6.5t31 -29.5l813 -1050
q-3 29 -4.5 56.5t-1.5 51.5v978h186z" />
    <glyph glyph-name="O" unicode="O" horiz-adv-x="1605" 
d="M1515 718q0 -161 -51.5 -295.5t-145.5 -232t-225 -151.5t-291 -54q-159 0 -290.5 54t-225 151.5t-145.5 232t-52 295.5q0 160 52 295t145.5 232.5t225 152t290.5 54.5q160 0 291 -54.5t225 -152t145.5 -232.5t51.5 -295zM1297 718q0 128 -35 230t-99.5 173t-156 109
t-204.5 38t-204.5 -38t-156.5 -109t-100 -173t-35 -230q0 -129 35 -230.5t100 -172.5t156.5 -108.5t204.5 -37.5t204.5 37.5t156 108.5t99.5 172.5t35 230.5z" />
    <glyph glyph-name="Oslash" unicode="&#xd8;" horiz-adv-x="1605" 
d="M545 232q54 -31 118.5 -47t138.5 -16q113 0 204.5 37.5t156 108.5t99.5 172.5t35 230.5q0 120 -30 216t-86 166zM1084 1189q-58 38 -128.5 58.5t-153.5 20.5q-113 0 -204.5 -38t-156.5 -109t-100 -173t-35 -230q0 -131 35.5 -232.5t101.5 -172.5zM1300 1264
q103 -99 159 -238t56 -308q0 -161 -51.5 -295.5t-145.5 -232t-225 -151.5t-291 -54q-106 0 -198.5 24t-171.5 69l-94 -128q-23 -32 -55.5 -45.5t-63.5 -13.5h-85l192 262q-112 99 -174.5 243t-62.5 322q0 160 52 295t145.5 232.5t225 152t290.5 54.5q115 0 214 -28t182 -80
l75 103q11 15 20 25.5t19 16.5t22 9t30 3h110z" />
    <glyph glyph-name="OE" unicode="&#x152;" horiz-adv-x="2176" 
d="M756 164q102 0 184 38.5t140 110t89 174t31 231.5q0 128 -31 231t-89 175t-140 111t-184 39t-185 -39t-141 -111t-89.5 -175t-31.5 -231q0 -129 31.5 -231.5t89.5 -174t141 -110t185 -38.5zM2091 173l-1 -173h-865v224q-85 -112 -209.5 -175t-281.5 -63q-144 0 -262 54
t-202.5 151t-131 231.5t-46.5 295.5q0 160 46.5 295t131 232.5t202.5 152t262 54.5q157 0 281.5 -63.5t209.5 -176.5v224h865v-173h-676v-455h544v-167h-544v-468h677z" />
    <glyph glyph-name="P" unicode="P" horiz-adv-x="1210" 
d="M612 697q81 0 142.5 21t103 59.5t62.5 92t21 118.5q0 131 -81.5 206t-247.5 75h-222v-572h222zM612 1436q138 0 240 -32t169 -90.5t99.5 -141.5t32.5 -184t-35 -185.5t-103 -145.5t-169.5 -94.5t-233.5 -33.5h-222v-529h-213v1436h435z" />
    <glyph glyph-name="Thorn" unicode="&#xde;" horiz-adv-x="1205" 
d="M612 438q81 0 142.5 21t103 59t62.5 91.5t21 118.5q0 132 -81.5 206.5t-247.5 74.5h-222v-571h222zM612 1177q138 0 240 -32t169 -91t99.5 -142t32.5 -184t-35 -185.5t-103 -145t-169.5 -94.5t-233.5 -34h-222v-269h-213v1436h213v-259h222z" />
    <glyph glyph-name="Q" unicode="Q" horiz-adv-x="1605" 
d="M307 718q0 -129 35 -230.5t100 -172.5t156.5 -108.5t204.5 -37.5t204.5 37.5t156 108.5t99.5 172.5t35 230.5q0 128 -35 230t-99.5 173t-156 109t-204.5 38t-204.5 -38t-156.5 -109t-100 -173t-35 -230zM1585 -292h-176q-39 0 -69 10.5t-56 38.5l-242 264
q-110 -36 -239 -36q-159 0 -290.5 54t-225 151.5t-145.5 232t-52 295.5q0 160 52 295t145.5 232.5t225 152t290.5 54.5q160 0 291 -54.5t225 -152t145.5 -232.5t51.5 -295q0 -100 -20.5 -190.5t-58.5 -168.5t-93.5 -142t-125.5 -112z" />
    <glyph glyph-name="R" unicode="R" horiz-adv-x="1261" 
d="M584 744q82 0 144.5 20t104.5 56.5t63 87t21 111.5q0 124 -81.5 187t-244.5 63h-201v-525h194zM1254 0h-190q-57 0 -83 45l-355 498q-17 25 -37 35.5t-60 10.5h-139v-589h-213v1436h414q139 0 239.5 -28.5t166 -81t97 -126.5t31.5 -166q0 -75 -23 -141t-67.5 -118.5
t-108.5 -90.5t-145 -58q40 -24 69 -67z" />
    <glyph glyph-name="S" unicode="S" horiz-adv-x="1088" 
d="M920 1202q-10 -17 -21 -25t-28 -8q-18 0 -41 16.5t-57.5 37t-82.5 37t-115 16.5q-63 0 -110.5 -16.5t-79.5 -45t-48.5 -67t-16.5 -83.5q0 -58 29.5 -96t77.5 -65t109 -47l125 -41.5t125 -49.5t109 -70.5t77.5 -104t29.5 -150.5q0 -95 -32.5 -178t-94.5 -145t-152.5 -97.5
t-205.5 -35.5q-69 0 -134 13.5t-123 38t-108.5 59t-90.5 77.5l61 102q9 12 21.5 20t28.5 8q21 0 48.5 -22t68 -48.5t97 -48.5t137.5 -22q66 0 118 17.5t87.5 50t54.5 78.5t19 102q0 63 -29 103t-77 67t-109 46l-125 39.5t-125 47.5t-109 70.5t-77 109t-29 161.5q0 77 30 149
t87.5 127.5t141.5 89t192 33.5q121 0 222.5 -38.5t176.5 -110.5z" />
    <glyph glyph-name="Scedilla" unicode="&#x15e;" horiz-adv-x="1088" 
d="M920 1202q-10 -17 -21 -25t-28 -8q-18 0 -41 16.5t-57.5 37t-82.5 37t-115 16.5q-63 0 -110.5 -16.5t-79.5 -45t-48.5 -67t-16.5 -83.5q0 -58 29.5 -96t77.5 -65t109 -47l125 -41.5t125 -49.5t109 -70.5t77.5 -104t29.5 -150.5q0 -85 -26.5 -161t-76.5 -135.5t-124 -99.5
t-168 -53l-17 -62q93 -20 133.5 -55.5t40.5 -89.5q0 -33 -16.5 -59t-46 -44t-71 -28t-90.5 -10q-41 0 -77.5 7.5t-68.5 21.5l18 61q6 19 25 19q6 0 14 -3.5t18.5 -7t25.5 -7t35 -3.5q39 0 59.5 16t20.5 40q0 36 -40.5 50.5t-117.5 24.5l40 123q-132 5 -242.5 55t-188.5 132
l61 102q9 12 21.5 20t28.5 8q21 0 48.5 -22t68 -48.5t97 -48.5t137.5 -22q66 0 118 17.5t87.5 50t54.5 78.5t19 102q0 63 -29 103t-77 67t-109 46l-125 39.5t-125 47.5t-109 70.5t-77 109t-29 161.5q0 77 30 149t87.5 127.5t141.5 89t192 33.5q121 0 222.5 -38.5
t176.5 -110.5z" />
    <glyph glyph-name="T" unicode="T" horiz-adv-x="1186" 
d="M1156 1258h-456v-1258h-212v1258h-458v178h1126v-178z" />
    <glyph glyph-name="Tbar" unicode="&#x166;" horiz-adv-x="1214" 
d="M714 1258v-406h322v-124h-322v-728h-212v728h-324v124h324v406h-458v178h1126v-178h-456z" />
    <glyph glyph-name="U" unicode="U" horiz-adv-x="1475" 
d="M737 171q86 0 154 29t115 81.5t72 125t25 160.5v869h212v-869q0 -126 -40 -233t-115 -185t-182 -122t-241 -44t-241 44t-182 122t-115 185t-40 233v869h213v-868q0 -88 24.5 -161t71.5 -125.5t115 -81.5t154 -29z" />
    <glyph glyph-name="Uogonek" unicode="&#x172;" horiz-adv-x="1475" 
d="M1315 1436v-869q0 -114 -33 -213t-95 -175t-151.5 -125.5t-202.5 -64.5q-19 -11 -37.5 -26t-33 -33t-23.5 -39t-9 -44q0 -35 23.5 -56t62.5 -21q22 0 36.5 3.5t24 7t15.5 7t11 3.5q15 0 20 -13l30 -73q-31 -23 -78 -37t-99 -14q-91 0 -141.5 39.5t-50.5 105.5
q0 52 33 99.5t87 85.5q-127 6 -228 52t-171.5 123.5t-108 181.5t-37.5 226v869h213v-868q0 -88 24.5 -161t71.5 -125.5t115 -81.5t154 -29t154 29t115 81.5t72 125t25 160.5v869h212z" />
    <glyph glyph-name="V" unicode="V" horiz-adv-x="1363" 
d="M1361 1436l-584 -1436h-191l-584 1436h170q28 0 45.5 -14t26.5 -36l388 -976q14 -36 27.5 -79t24.5 -90q10 47 22 90t26 79l387 976q7 20 25.5 35t45.5 15h171z" />
    <glyph glyph-name="W" unicode="W" horiz-adv-x="2079" 
d="M2052 1436l-448 -1436h-192l-350 1065q-12 32 -21 77q-11 -46 -21 -77l-354 -1065h-191l-448 1436h178q28 0 47 -13.5t25 -36.5l283 -961q8 -28 14.5 -61l13.5 -69q7 36 14.5 69t17.5 61l324 961q6 20 25.5 35t46.5 15h61q28 0 46 -14t26 -36l323 -961q18 -55 32 -125
q12 69 26 125l284 961q5 20 25 35t47 15h166z" />
    <glyph glyph-name="X" unicode="X" horiz-adv-x="1308" 
d="M1291 0h-211q-23 0 -37 12.5t-22 26.5l-371 591q-8 -25 -19 -43l-361 -548q-10 -14 -23 -26.5t-33 -12.5h-199l491 739l-470 697h211q23 0 34 -7t19 -21l363 -563q8 26 22 48l340 511q9 16 20 24t28 8h203l-473 -688z" />
    <glyph glyph-name="Y" unicode="Y" horiz-adv-x="1260" 
d="M736 568v-568h-212v568l-526 868h187q28 0 45 -13.5t28 -35.5l312 -537l34.5 -70t27.5 -65q11 32 25.5 65t33.5 70l311 537q10 18 27.5 33.5t44.5 15.5h188z" />
    <glyph glyph-name="Z" unicode="Z" horiz-adv-x="1206" 
d="M1144 1357q0 -36 -22 -69l-793 -1115h801v-173h-1080v84q0 17 5.5 32t14.5 29l795 1118h-775v173h1054v-79z" />
    <glyph glyph-name="a" unicode="a" horiz-adv-x="999" 
d="M683 451q-119 -4 -202 -18.5t-135 -38.5t-75 -56.5t-23 -72.5q0 -38 12.5 -65.5t34 -45t50.5 -25.5t63 -8q45 0 82.5 9t70.5 25.5t63 40.5t59 55v200zM111 874q85 81 184.5 121t218.5 40q87 0 154 -28.5t113 -79.5t69.5 -122t23.5 -157v-648h-87q-29 0 -44 9.5t-24 35.5
l-21 89q-39 -36 -77 -63.5t-79.5 -47t-88.5 -29.5t-104 -10q-60 0 -112.5 16.5t-91.5 50.5t-61.5 85t-22.5 119q0 60 32.5 115.5t106 99.5t192 72t291.5 32v74q0 115 -49 172t-144 57q-64 0 -107.5 -16t-75 -35.5t-55 -35.5t-48.5 -16q-20 0 -34.5 11t-23.5 26z" />
    <glyph glyph-name="aogonek" unicode="&#x105;" horiz-adv-x="999" 
d="M683 451q-119 -4 -202 -18.5t-135 -38.5t-75 -56.5t-23 -72.5q0 -38 12.5 -65.5t34 -45t50.5 -25.5t63 -8q45 0 82.5 9t70.5 25.5t63 40.5t59 55v200zM982 -291q-31 -23 -78 -37t-99 -14q-91 0 -141.5 39.5t-50.5 105.5q0 57 39.5 109t104.5 91q-27 8 -38 42l-21 89
q-39 -36 -77 -63.5t-79.5 -47t-88.5 -29.5t-104 -10q-60 0 -112.5 16.5t-91.5 50.5t-61.5 85t-22.5 119q0 60 32.5 115.5t106 99.5t192 72t291.5 32v74q0 115 -49 172t-144 57q-64 0 -107.5 -16t-75 -35.5t-55 -35.5t-48.5 -16q-20 0 -34.5 11t-23.5 26l-35 63
q85 81 184.5 121t218.5 40q87 0 154 -28.5t113 -79.5t69.5 -122t23.5 -157v-648q-20 -11 -40.5 -26t-37 -34t-27 -41.5t-10.5 -47.5q0 -35 23.5 -56t62.5 -21q22 0 36.5 3.5t24 7t15.5 7t11 3.5q15 0 20 -13z" />
    <glyph glyph-name="ae" unicode="&#xe6;" horiz-adv-x="1612" 
d="M685 479q-119 -5 -202 -21.5t-134.5 -43t-74.5 -61t-23 -74.5q0 -83 47.5 -120.5t125.5 -37.5q55 0 102.5 17t82.5 52.5t55.5 89t20.5 126.5v73zM1362 601q0 61 -15 113.5t-44 91.5t-71.5 61t-96.5 22q-59 0 -104.5 -20t-78.5 -57t-53.5 -90.5t-27.5 -120.5h491zM869 480
q5 -86 27.5 -150t60 -106t88.5 -63t113 -21q69 0 114 14t75 31t49 31t36 14q15 0 24.5 -5t15.5 -13l52 -67q-35 -42 -79.5 -72.5t-95 -49.5t-104 -28t-105.5 -9q-115 0 -210 54.5t-152 167.5q-28 -60 -71.5 -102.5t-96.5 -69.5t-112.5 -39.5t-119.5 -12.5q-71 0 -128.5 18
t-99 53.5t-64 89t-22.5 124.5q0 60 32 117.5t105.5 104t192 77t291.5 34.5v46q0 115 -49 175t-144 60q-64 0 -107.5 -17t-75 -37.5t-55 -37.5t-48.5 -17q-20 0 -34.5 11t-23.5 26l-35 63q85 80 177 120.5t206 40.5q119 0 192 -49.5t108 -136.5q54 85 141 134t206 49
q83 0 155 -32.5t125 -94t83 -149.5t30 -200q0 -45 -9 -60.5t-36 -15.5h-622z" />
    <glyph glyph-name="b" unicode="b" horiz-adv-x="1124" 
d="M332 250q48 -63 104 -88t122 -25q136 0 209.5 97t73.5 293q0 181 -65 265.5t-184 84.5q-84 0 -145.5 -38t-114.5 -108v-481zM332 876q63 70 143 113t182 43q89 0 160.5 -34.5t121.5 -99t77 -156.5t27 -208q0 -123 -30.5 -224t-87 -173t-137.5 -111.5t-182 -39.5
q-49 0 -90 9.5t-75.5 27.5t-63.5 44t-55 59l-9 -85q-8 -41 -50 -41h-126v1476h195v-600z" />
    <glyph glyph-name="c" unicode="c" horiz-adv-x="957" 
d="M849 826q-9 -11 -17.5 -17.5t-24.5 -6.5t-33.5 12.5t-44 27t-64 27t-92.5 12.5q-72 0 -127 -26t-91.5 -74t-55.5 -117t-19 -155q0 -89 20 -158.5t57 -117t90 -72t118 -24.5q63 0 104 15.5t68 33.5t45 33.5t37 15.5q24 0 37 -18l56 -72q-35 -43 -78.5 -73t-92.5 -49
t-102.5 -28t-108.5 -9q-95 0 -177.5 35t-143 102t-95.5 164.5t-35 221.5q0 113 31.5 209t93 165.5t151.5 109t206 39.5q109 0 192 -35t148 -99z" />
    <glyph glyph-name="ccedilla" unicode="&#xe7;" horiz-adv-x="958" 
d="M912 145q-60 -74 -143.5 -111t-176.5 -45l-17 -60q93 -20 133 -55.5t40 -89.5q0 -33 -16.5 -59t-45.5 -44t-70.5 -28t-90.5 -10q-41 0 -77.5 7.5t-68.5 21.5l18 61q6 19 25 19q6 0 13.5 -3.5t18.5 -7t25.5 -7t34.5 -3.5q40 0 60 16t20 40q0 36 -40.5 50.5t-116.5 24.5
l42 127q-86 9 -159 48t-126.5 105.5t-84 158.5t-30.5 208q0 113 31.5 209t93 165.5t151.5 109t206 39.5q109 0 192 -35t148 -99l-52 -72q-9 -11 -17.5 -17.5t-24.5 -6.5t-33.5 12.5t-44 27t-64 27t-92.5 12.5q-72 0 -127 -26t-91.5 -74t-55.5 -117t-19 -155q0 -89 20 -158.5
t57 -117t90 -72t118 -24.5q63 0 104 15.5t68 33.5t45 33.5t37 15.5q24 0 37 -18z" />
    <glyph glyph-name="c_h.dlig" horiz-adv-x="2087" 
d="M1299 887q64 65 141.5 105t178.5 40q84 0 147.5 -28t106.5 -78.5t65 -121.5t22 -157v-647h-196v647q0 109 -50 169.5t-153 60.5q-75 0 -140.5 -35.5t-121.5 -96.5v-745h-195v1379q-10 20 -29 35.5t-44 26t-55 16t-62 5.5q-59 0 -103 -18t-73.5 -49t-44.5 -72t-15 -87
q0 -69 30 -135t84 -122q30 -16 57 -36.5t52 -44.5l-52 -72q-9 -11 -17.5 -17.5t-24.5 -6.5t-33.5 12.5t-44 27t-64 27t-92.5 12.5q-72 0 -127 -26t-91.5 -74t-55.5 -117t-19 -155q0 -89 20 -158.5t57 -117t90 -72t118 -24.5q63 0 104 15.5t68 33.5t45 33.5t37 15.5
q24 0 37 -18l56 -72q-35 -43 -78.5 -73t-92.5 -49t-102.5 -28t-108.5 -9q-95 0 -177.5 35t-143 102t-95.5 164.5t-35 221.5q0 113 31.5 209t93 165.5t151.5 109t206 39.5q20 0 39.5 -1.5t38.5 -3.5q-27 48 -41.5 100t-14.5 106q0 70 25.5 130.5t73.5 105t118.5 70
t160.5 25.5q68 0 119.5 -14t91 -30.5l70 -30t57.5 -13.5v-589z" />
    <glyph glyph-name="c_k.dlig" horiz-adv-x="1996" 
d="M849 826q-9 -11 -17.5 -17.5t-24.5 -6.5t-33.5 12.5t-44 27t-64 27t-92.5 12.5q-72 0 -127 -26t-91.5 -74t-55.5 -117t-19 -155q0 -89 20 -158.5t57 -117t90 -72t118 -24.5q63 0 104 15.5t68 33.5t45 33.5t37 15.5q24 0 37 -18l56 -72q-35 -43 -78.5 -73t-92.5 -49
t-102.5 -28t-108.5 -9q-95 0 -177.5 35t-143 102t-95.5 164.5t-35 221.5q0 113 31.5 209t93 165.5t151.5 109t206 39.5q20 0 39.5 -1.5t38.5 -3.5q-27 48 -41.5 100t-14.5 106q0 70 25.5 130.5t73.5 105t118.5 70t160.5 25.5q66 0 116.5 -13t89.5 -29.5l69.5 -30.5t56.5 -15
h6v-863h46q21 0 35 6t29 24l304 335q14 19 31 28.5t43 9.5h178l-359 -393q-29 -37 -62 -57q19 -13 33.5 -30t28.5 -37l382 -499h-175q-24 0 -41.5 8t-31.5 29l-314 408q-15 23 -30 29.5t-45 6.5h-52v-481h-195v1378q-10 20 -29 36t-44.5 26.5t-55.5 16t-61 5.5
q-59 0 -103 -18t-73.5 -49t-44.5 -72t-15 -87q0 -69 30 -135t84 -122q30 -16 57 -36.5t52 -44.5z" />
    <glyph glyph-name="c_t.dlig" horiz-adv-x="1669" 
d="M1652 76q-48 -44 -114.5 -68t-137.5 -24q-123 0 -189.5 69t-66.5 197v608h-117q-17 0 -29 10.5t-12 31.5v79l174 24l16.5 63t15 67t10.5 67.5t4 63.5q0 46 -12 85.5t-39 69t-69.5 46t-103.5 16.5q-72 0 -126.5 -22t-91.5 -59t-55.5 -85.5t-18.5 -100.5q0 -59 26 -120
t77 -116q30 -16 56.5 -36t51.5 -44l-52 -72q-9 -11 -17.5 -17.5t-24.5 -6.5t-33.5 12.5t-44 27t-64 27t-92.5 12.5q-72 0 -127 -26t-91.5 -74t-55.5 -117t-19 -155q0 -89 20 -158.5t57 -117t90 -72t118 -24.5q63 0 104 15.5t68 33.5t45 33.5t37 15.5q24 0 37 -18l56 -72
q-35 -43 -78.5 -73t-92.5 -49t-102.5 -28t-108.5 -9q-95 0 -177.5 35t-143 102t-95.5 164.5t-35 221.5q0 113 31.5 209t93 165.5t151.5 109t206 39.5q42 0 81 -6q-47 91 -47 187q0 68 24.5 131.5t73 112t121 78t168.5 29.5q94 0 161.5 -28t111 -74t64.5 -105t21 -121v-236
h288v-142h-288v-595q0 -60 29 -89.5t76 -29.5q27 0 46.5 7t33.5 15.5t24 15.5t18 7q9 0 15 -4.5t12 -14.5z" />
    <glyph glyph-name="ccedilla_t.dlig" horiz-adv-x="1670" 
d="M1340 1000h288v-142h-288v-595q0 -60 29 -89.5t76 -29.5q27 0 46.5 7t33.5 15.5t24 15.5t18 7q9 0 15 -4.5t12 -14.5l58 -94q-48 -44 -114.5 -68t-137.5 -24q-123 0 -189.5 69t-66.5 197v608h-117q-17 0 -29 10.5t-12 31.5v79l174 24l16.5 63t15 67t10.5 67.5t4 63.5
q0 46 -12 85.5t-39 69t-69.5 46t-103.5 16.5q-72 0 -126.5 -22t-91.5 -59t-55.5 -85.5t-18.5 -100.5q0 -59 25.5 -120t76.5 -115q30 -16 57 -36.5t52 -44.5l-52 -72q-9 -11 -17.5 -17.5t-24.5 -6.5t-33.5 12.5t-44 27t-64 27t-92.5 12.5q-72 0 -127 -26t-91.5 -74
t-55.5 -117t-19 -155q0 -89 20 -158.5t57 -117t90 -72t118 -24.5q63 0 104 15.5t68 33.5t45 33.5t37 15.5q24 0 37 -18l56 -72q-60 -74 -144 -111t-176 -45l-17 -60q93 -20 133.5 -55.5t40.5 -89.5q0 -33 -16.5 -59t-46 -44t-71 -28t-90.5 -10q-41 0 -77.5 7.5t-68.5 21.5
l18 61q6 19 25 19q6 0 14 -3.5t18.5 -7t25.5 -7t35 -3.5q39 0 59.5 16t20.5 40q0 36 -40.5 50.5t-117.5 24.5l42 127q-86 9 -159 47.5t-126.5 105t-84 159t-30.5 208.5q0 113 31.5 209t93 165.5t151.5 109t206 39.5q42 0 81 -6q-23 45 -35 92t-12 95q0 68 24.5 131.5t73 112
t121 78t168.5 29.5q94 0 161.5 -28t111 -74t64.5 -105t21 -121v-236z" />
    <glyph glyph-name="d" unicode="d" horiz-adv-x="1124" 
d="M792 770q-48 63 -103.5 88t-124.5 25q-134 0 -207.5 -96.5t-73.5 -281.5q0 -97 16.5 -165.5t48 -112t77.5 -64t104 -20.5q85 0 147 38t116 107v482zM988 1476v-1476h-118q-41 0 -51 39l-17 117q-65 -77 -147.5 -123.5t-190.5 -46.5q-87 0 -157.5 34t-120.5 99.5
t-77 162.5t-27 223q0 113 30 210t87 168t138 111.5t183 40.5q92 0 156.5 -30t115.5 -85v556h196z" />
    <glyph glyph-name="dcaron" unicode="&#x10f;" horiz-adv-x="1124" 
d="M792 770q-48 63 -103.5 88t-124.5 25q-134 0 -207.5 -96.5t-73.5 -281.5q0 -97 16.5 -165.5t48 -112t77.5 -64t104 -20.5q85 0 147 38t116 107v482zM988 1476v-1476h-118q-41 0 -51 39l-17 117q-65 -77 -147.5 -123.5t-190.5 -46.5q-87 0 -157.5 34t-120.5 99.5
t-77 162.5t-27 223q0 113 30 210t87 168t138 111.5t183 40.5q92 0 156.5 -30t115.5 -85v556h196zM1272 1478q23 0 29 -11t6 -23q0 -9 -3.5 -25.5t-13 -46t-26 -75l-42.5 -113.5q-11 -23 -27 -30.5t-43 -7.5h-68l58 332h130z" />
    <glyph glyph-name="dcroat" unicode="&#x111;" horiz-adv-x="1125" 
d="M793 746q-47 62 -103 87.5t-124 25.5q-134 0 -208 -91t-74 -275q0 -97 16.5 -163.5t48 -108t77.5 -60t104 -18.5q85 0 147 38t116 107v458zM1136 1140h-147v-1140h-118q-41 0 -51 39l-17 117q-64 -77 -147 -123.5t-191 -46.5q-87 0 -157.5 32t-120.5 95.5t-77 158.5
t-27 221q0 113 30 208t87 163.5t138 107t183 38.5q92 0 156.5 -30t115.5 -84v244h-234v124h234v212h196v-212h147v-124z" />
    <glyph glyph-name="eth" unicode="&#xf0;" horiz-adv-x="1134" 
d="M553 138q68 0 123.5 25.5t95 78t62 132.5t25.5 190q-16 42 -41.5 80t-61.5 67.5t-83.5 47t-107.5 17.5q-72 0 -127 -24t-91.5 -65.5t-55.5 -98t-19 -121.5q0 -80 22 -141t60.5 -103t89.5 -63.5t109 -21.5zM780 1224q59 -49 107.5 -111.5t83 -139t53.5 -168.5t19 -200
q0 -144 -32 -258.5t-94 -195t-155 -123t-214 -42.5q-99 0 -185 33t-149 95t-99.5 151.5t-36.5 202.5q0 93 31.5 176.5t89.5 146.5t141 100t187 37q100 0 186 -41t150 -122q-21 128 -77 218t-149 153l-187 -134l-37 62q-12 20 -8 38t24 30l96 64q-84 37 -188 62q-26 7 -40 30
t0 63l22 68q97 -16 188.5 -46.5t172.5 -78.5l169 120l38 -63q11 -19 6.5 -36.5t-21.5 -29.5z" />
    <glyph glyph-name="e" unicode="e" horiz-adv-x="1059" 
d="M810 621q0 58 -16.5 107t-48.5 85t-78 56t-106 20q-123 0 -193.5 -71t-89.5 -197h532zM971 145q-36 -42 -83 -72.5t-100 -49.5t-109.5 -28t-111.5 -9q-105 0 -194.5 35.5t-155 104t-102 170t-36.5 233.5q0 106 33 197.5t94.5 159.5t150.5 107t200 39q93 0 171.5 -30.5
t135.5 -88.5t89.5 -143t32.5 -194q0 -45 -10 -60.5t-37 -15.5h-666q3 -91 26 -158.5t63.5 -112.5t96.5 -67t125 -22q65 0 112.5 15t82 32.5t58 32.5t41.5 15q24 0 37 -18z" />
    <glyph glyph-name="eogonek" unicode="&#x119;" horiz-adv-x="1059" 
d="M810 621q0 58 -16.5 107t-48.5 85t-78 56t-106 20q-123 0 -193.5 -71t-89.5 -197h532zM797 -291q-31 -23 -78 -37t-99 -14q-91 0 -141.5 39.5t-50.5 105.5q0 51 32 98t86 85q-101 4 -187 41t-148 105.5t-97 168t-35 228.5q0 106 33 197.5t94.5 159.5t150.5 107t200 39
q93 0 171.5 -30.5t135.5 -88.5t89.5 -143t32.5 -194q0 -45 -10 -60.5t-37 -15.5h-666q3 -91 26 -158.5t63.5 -112.5t96.5 -67t125 -22q65 0 112.5 15t82 32.5t58 32.5t41.5 15q24 0 37 -18l56 -72q-54 -63 -130 -99.5t-160 -50.5q-19 -11 -38 -26t-34.5 -33t-25 -39.5
t-9.5 -45.5q0 -35 23.5 -56t62.5 -21q22 0 36.5 3.5t24 7t15.5 7t11 3.5q15 0 20 -13z" />
    <glyph glyph-name="f" unicode="f" horiz-adv-x="705" 
d="M204 0v856l-106 13q-23 5 -37.5 16.5t-14.5 33.5v81h158v92q0 87 25 155t71.5 115.5t112 72t147.5 24.5q69 0 127 -20l-4 -98q-1 -13 -8 -19.5t-18.5 -9.5t-28 -3.5t-35.5 -0.5q-45 0 -82 -11t-63 -37t-40 -68.5t-14 -105.5v-86h285v-142h-279v-858h-196z" />
    <glyph glyph-name="g" unicode="g" horiz-adv-x="1044" 
d="M494 507q52 0 91.5 14t66 39.5t40 61.5t13.5 79q0 88 -53.5 140.5t-157.5 52.5q-103 0 -156.5 -52.5t-53.5 -140.5q0 -43 13.5 -78.5t40 -61t66 -40t90.5 -14.5zM805 -53q0 36 -20 57.5t-54.5 34t-80.5 18t-96.5 8.5t-103.5 5.5t-102 9.5q-52 -26 -85.5 -63t-33.5 -87
q0 -32 16.5 -60t51 -48.5t87 -32t125.5 -11.5q72 0 127 12.5t92.5 35t57 53.5t19.5 68zM1003 978v-73q0 -36 -45 -45l-109 -16q14 -31 22 -65.5t8 -72.5q0 -75 -29 -135.5t-80 -103.5t-121.5 -66t-154.5 -23q-69 0 -129 15q-30 -18 -45.5 -39.5t-15.5 -42.5q0 -35 29.5 -52
t77 -24.5t109 -9.5t125 -6.5t125 -16t109 -37t77 -70t29.5 -115.5q0 -66 -32.5 -128t-94.5 -110t-151 -77t-202 -29t-196.5 22t-139 59t-83 86t-27.5 102q0 74 46 125.5t127 80.5q-44 20 -70 54.5t-26 91.5q0 22 8 45.5t24.5 47t41 44.5t56.5 38q-75 42 -118 111.5
t-43 162.5q0 75 29 135t80.5 103t123 66t156.5 23q132 0 227 -55h282z" />
    <glyph glyph-name="g.salt" horiz-adv-x="1124" 
d="M792 772q-46 60 -102.5 85.5t-124.5 25.5q-134 0 -207.5 -93t-73.5 -269q0 -92 16.5 -158.5t48 -109.5t78 -63.5t105.5 -20.5q82 0 144 38t116 107v458zM988 1016v-954q0 -92 -32.5 -169.5t-94 -133.5t-150.5 -87.5t-203 -31.5q-127 0 -217.5 36.5t-150.5 90.5l45 75
q8 14 20.5 21.5t31.5 7.5t40 -14t50.5 -30.5t71.5 -30.5t105 -14q72 0 126 20.5t90 57t54 86t18 106.5v106q-33 -37 -66.5 -64.5t-71 -45.5t-80 -27t-93.5 -9q-93 0 -167 34t-125.5 99t-79 159.5t-27.5 216.5q0 108 30 202t87 163t138 108.5t183 39.5q98 0 166 -34t121 -95
l12 72q10 39 51 39h118z" />
    <glyph glyph-name="h" unicode="h" horiz-adv-x="1119" 
d="M332 887q64 65 141.5 105t178.5 40q84 0 147.5 -28t106.5 -78.5t65 -121.5t22 -157v-647h-196v647q0 109 -50 169.5t-153 60.5q-75 0 -140.5 -35.5t-121.5 -96.5v-745h-195v1476h195v-589z" />
    <glyph glyph-name="hcircumflex" unicode="&#x125;" horiz-adv-x="1119" 
d="M560 1546h-142q-13 0 -31 4.5t-36 27.5l-109 132l-12 18l-12 -18l-109 -132q-18 -23 -36 -27.5t-31 -4.5h-136l239 273h176zM332 887q64 65 141.5 105t178.5 40q84 0 147.5 -28t106.5 -78.5t65 -121.5t22 -157v-647h-196v647q0 109 -50 169.5t-153 60.5
q-75 0 -140.5 -35.5t-121.5 -96.5v-745h-195v1476h195v-589z" />
    <glyph glyph-name="hbar" unicode="&#x127;" horiz-adv-x="1119" 
d="M332 864q64 66 141 105t178 39q84 0 147.5 -28t106.5 -78.5t65 -121.5t22 -157v-623h-196v623q0 109 -50 169.5t-152 60.5q-75 0 -140.5 -35t-121.5 -97v-721h-196v1152h-151v124h151v200h196v-200h290v-124h-290v-288z" />
    <glyph glyph-name="i" unicode="i" horiz-adv-x="487" 
d="M341 1016v-1016h-195v1016h195zM378 1330q0 -27 -11 -51.5t-29.5 -43t-43.5 -29t-52 -10.5t-51 10.5t-42.5 29t-29 43t-10.5 51.5q0 28 10.5 52.5t29 43t42.5 29t51 10.5t52 -10.5t43.5 -29t29.5 -43t11 -52.5z" />
    <glyph glyph-name="iogonek" unicode="&#x12f;" horiz-adv-x="487" 
d="M242 1196q-27 0 -51 10.5t-42.5 29t-29 43t-10.5 51.5q0 28 10.5 52.5t29 43t42.5 29t51 10.5t52 -10.5t43.5 -29t29.5 -43t11 -52.5q0 -27 -11 -51.5t-29.5 -43t-43.5 -29t-52 -10.5zM432 -291q-31 -23 -78 -37t-99 -14q-91 0 -141.5 39.5t-50.5 105.5q0 57 38 107.5
t100 89.5h-55v1016h195v-1016h-17q-20 -11 -40.5 -26t-37 -34t-27 -41.5t-10.5 -47.5q0 -35 23.5 -56t62.5 -21q22 0 36.5 3.5t24 7t15.5 7t11 3.5q15 0 20 -13z" />
    <glyph glyph-name="dotlessi" unicode="&#x131;" horiz-adv-x="488" 
d="M342 1016v-1016h-196v1016h196z" />
    <glyph glyph-name="i_j.dlig" horiz-adv-x="1052" 
d="M228 1196q-27 0 -51 10.5t-42.5 29t-29 43t-10.5 51.5q0 28 10.5 52.5t29 43t42.5 29t51 10.5q28 0 52.5 -10.5t43.5 -29t30 -43t11 -52.5q0 -27 -11 -51.5t-30 -43t-43.5 -29t-52.5 -10.5zM721 1016h195v-1007q0 -83 -22.5 -151t-69 -117t-118.5 -76t-171 -27
q-33 0 -67.5 5t-62.5 15l14 106q2 10 6.5 14.5t13 6.5t22.5 2h35q112 0 168.5 51.5t56.5 170.5v93q-26 -29 -53 -50.5t-58 -36t-67.5 -22t-79.5 -7.5q-85 0 -148.5 27.5t-105.5 77.5t-62.5 121t-20.5 157v647h196v-647q0 -108 49.5 -168.5t151.5 -60.5q35 0 62.5 5.5
t50.5 18.5t43.5 34t41.5 52v766zM820 1465q28 0 52.5 -10.5t43.5 -29t30 -43t11 -52.5q0 -27 -11 -51.5t-30 -43t-43.5 -29t-52.5 -10.5q-27 0 -51 10.5t-42 29t-28.5 43t-10.5 51.5q0 28 10.5 52.5t28.5 43t42 29t51 10.5z" />
    <glyph glyph-name="j" unicode="j" horiz-adv-x="487" 
d="M341 1016v-1080q0 -63 -16.5 -117.5t-52 -95t-92 -63.5t-136.5 -23q-33 0 -60.5 5t-55.5 14l8 106q4 19 17.5 21t51.5 2q77 0 109 35t32 116v1080h195zM378 1330q0 -27 -11 -51.5t-30 -43t-43.5 -29t-52.5 -10.5q-27 0 -51 10.5t-42.5 29t-29 43t-10.5 51.5
q0 28 10.5 52.5t29 43t42.5 29t51 10.5q28 0 52.5 -10.5t43.5 -29t30 -43t11 -52.5z" />
    <glyph glyph-name="uni0237" unicode="&#x237;" horiz-adv-x="488" 
d="M342 1016v-1080q0 -63 -16.5 -117.5t-52.5 -95t-92.5 -63.5t-135.5 -23q-33 0 -60.5 5t-55.5 14l7 106q2 10 6 14.5t11.5 6.5t20 2h31.5q77 0 109 35.5t32 115.5v1080h196z" />
    <glyph glyph-name="k" unicode="k" horiz-adv-x="1029" 
d="M332 1476v-863h46q21 0 35 6t29 24l304 335q14 19 31 28.5t43 9.5h178l-359 -393q-29 -37 -62 -57q19 -13 33.5 -30t28.5 -37l382 -499h-175q-24 0 -41.5 8t-31.5 29l-314 408q-15 23 -30 29.5t-45 6.5h-52v-481h-195v1476h195z" />
    <glyph glyph-name="kgreenlandic" unicode="&#x138;" horiz-adv-x="1029" 
d="M332 1016v-403h46q21 0 35 6t29 24l304 335q14 19 31 28.5t43 9.5h178l-359 -393q-29 -37 -62 -57q19 -13 33.5 -30t28.5 -37l382 -499h-175q-24 0 -41.5 8t-31.5 29l-314 408q-15 23 -30 29.5t-45 6.5h-52v-481h-195v1016h195z" />
    <glyph glyph-name="lslash" unicode="&#x142;" horiz-adv-x="627" 
d="M600 1015v-113q0 -35 -28 -46l-157 -69v-787h-196v716l-177 -75v116q0 29 26 42l151 67v610h196v-538z" />
    <glyph glyph-name="lcaron" unicode="&#x13e;" horiz-adv-x="478" 
d="M337 1476v-1476h-196v1476h196zM635 1478q23 0 29 -11t6 -23q0 -9 -3.5 -25.5t-13 -46t-26 -75l-42.5 -113.5q-11 -23 -27 -30.5t-43 -7.5h-68l58 332h130z" />
    <glyph glyph-name="m" unicode="m" horiz-adv-x="1653" 
d="M137 0v1016h117q41 0 51 -39l14 -97q56 67 124.5 109.5t160.5 42.5q101 0 164 -55.5t92 -150.5q22 54 57 93t78 64t91.5 37t98.5 12q81 0 144.5 -25.5t107.5 -74.5t67 -121t23 -164v-647h-196v647q0 114 -49.5 172t-144.5 58q-42 0 -80 -14.5t-66.5 -43.5t-45 -72
t-16.5 -100v-647h-196v647q0 118 -47 174t-138 56q-63 0 -117 -33t-99 -90v-754h-195z" />
    <glyph glyph-name="n" unicode="n" horiz-adv-x="1119" 
d="M320 875q33 35 69 64t76.5 49.5t87 32t99.5 11.5q84 0 147.5 -28t106.5 -78.5t65 -121.5t22 -157v-647h-196v647q0 109 -50 169.5t-153 60.5q-75 0 -140.5 -35.5t-121.5 -96.5v-745h-195v1016h117q41 0 51 -39z" />
    <glyph glyph-name="eng" unicode="&#x14b;" horiz-adv-x="1119" 
d="M320 875q33 35 69 64t76.5 49.5t87 32t99.5 11.5q84 0 147.5 -28t106.5 -78.5t65 -121.5t22 -157v-638q0 -83 -20.5 -151.5t-62.5 -118t-107 -76.5t-154 -27q-49 0 -89 8.5t-85 28.5l21 85q7 25 18.5 32t25.5 7t34 -6.5t57 -6.5q81 0 123.5 50t42.5 153v660
q0 109 -50 169.5t-153 60.5q-75 0 -140.5 -35.5t-121.5 -96.5v-745h-195v1016h117q41 0 51 -39z" />
    <glyph glyph-name="o" unicode="o" horiz-adv-x="1138" 
d="M570 1032q112 0 202.5 -36.5t154 -105t97.5 -165t34 -216.5t-34 -217t-97.5 -165t-154 -104.5t-202.5 -36.5q-113 0 -203.5 36.5t-154.5 104.5t-98.5 165t-34.5 217t34.5 216.5t98.5 165t154.5 105t203.5 36.5zM570 138q144 0 215 97t71 273t-71 273.5t-215 97.5
q-146 0 -217.5 -97.5t-71.5 -273.5t71.5 -273t217.5 -97z" />
    <glyph glyph-name="oslash" unicode="&#xf8;" horiz-adv-x="1136" 
d="M403 176q68 -44 167 -44q72 0 127.5 25.5t93.5 74t57.5 118.5t19.5 158q0 143 -47 234zM742 835q-68 50 -172 50q-73 0 -129 -26t-94.5 -74.5t-58 -118.5t-19.5 -158q0 -150 52 -243zM929 887q63 -68 96 -163.5t33 -214.5q0 -120 -34 -217t-97.5 -165t-154 -104.5
t-202.5 -36.5q-149 0 -260 64l-49 -67q-22 -34 -55 -46.5t-65 -12.5h-72l147 199q-66 69 -101.5 166t-35.5 220q0 120 34.5 216.5t98.5 165t154.5 105t203.5 36.5q154 0 267 -69l64 87q19 31 37.5 42.5t53.5 11.5h97z" />
    <glyph glyph-name="oe" unicode="&#x153;" horiz-adv-x="1748" 
d="M1497 601q0 61 -15 113.5t-43.5 91.5t-70.5 61t-96 22q-59 0 -104.5 -20t-78.5 -57t-53.5 -90.5t-27.5 -120.5h489zM548 138q134 0 199.5 97t65.5 273t-65.5 273.5t-199.5 97.5q-135 0 -201 -97.5t-66 -273.5t66 -273t201 -97zM1006 480q5 -86 27.5 -150t60 -106
t88.5 -63t113 -21q60 0 103 15t75 32.5t54.5 32.5t41.5 15q23 0 36 -18l56 -72q-35 -42 -79.5 -72.5t-95 -49.5t-104 -28t-105.5 -9q-116 0 -211.5 55.5t-152.5 170.5q-54 -109 -151.5 -167.5t-231.5 -58.5q-100 0 -183 36.5t-142 104.5t-92 165t-33 217t33 216.5t93 165
t144 105t187 36.5q130 0 225 -57.5t149 -163.5q52 101 144.5 161t224.5 60q83 0 154.5 -32.5t124 -94t82.5 -149.5t30 -200q0 -45 -9 -60.5t-36 -15.5h-620z" />
    <glyph glyph-name="p" unicode="p" horiz-adv-x="1125" 
d="M332 250q48 -63 103.5 -88t124.5 -25q134 0 207.5 96.5t73.5 281.5q0 97 -16.5 165.5t-48 112t-77.5 64t-104 20.5q-85 0 -147.5 -38t-115.5 -108v-481zM322 864q32 38 68.5 69.5t78.5 54t89.5 35t101.5 12.5q87 0 157.5 -34t120.5 -100t77.5 -163t27.5 -223
q0 -113 -30.5 -209.5t-87 -167.5t-138 -111.5t-183.5 -40.5q-91 0 -156 30t-116 84v-441h-195v1357h117q41 0 51 -39z" />
    <glyph glyph-name="thorn" unicode="&#xfe;" horiz-adv-x="1125" 
d="M332 250q48 -63 103.5 -88t124.5 -25q134 0 207.5 96.5t73.5 281.5q0 97 -16.5 165.5t-48 112t-77.5 64t-104 20.5q-85 0 -147.5 -38t-115.5 -108v-481zM332 875q63 71 143.5 114t184.5 43q87 0 157.5 -33.5t120.5 -98.5t77.5 -162t27.5 -223q0 -113 -30.5 -209.5
t-87 -167.5t-138 -111.5t-183.5 -40.5q-93 0 -157 34t-115 94v-455h-195v1817h195v-601z" />
    <glyph glyph-name="q" unicode="q" horiz-adv-x="1123" 
d="M792 770q-45 61 -102.5 87t-125.5 26q-134 0 -207.5 -96.5t-73.5 -281.5q0 -97 16.5 -165.5t48 -112t77.5 -64t104 -20.5q85 0 147 38t116 107v482zM988 1016v-1357h-196v486q-63 -72 -143 -115.5t-185 -43.5q-87 0 -157.5 34t-120.5 99.5t-77 162.5t-27 223
q0 113 30 210t87 168t138 111.5t183 40.5q49 0 90 -9t76 -26t64.5 -41t55.5 -55l13 73q10 39 51 39h118z" />
    <glyph glyph-name="r" unicode="r" horiz-adv-x="733" 
d="M321 821q49 100 118 157t166 57q33 0 62.5 -7.5t51.5 -22.5l-13 -147q-7 -27 -33 -27q-14 0 -42 5.5t-60 5.5q-47 0 -83 -13.5t-64.5 -40t-50.5 -65t-41 -87.5v-636h-195v1016h112q32 0 43.5 -11.5t16.5 -40.5z" />
    <glyph glyph-name="s" unicode="s" horiz-adv-x="869" 
d="M736 841q-8 -13 -17 -18.5t-23 -5.5q-16 0 -35.5 11t-47 24t-64.5 24t-88 11q-42 0 -76.5 -10.5t-58.5 -29t-37 -44t-13 -54.5q0 -38 22.5 -63t59 -43t83 -32.5l95 -30.5t95 -36.5t83 -51t59 -73.5t22.5 -105q0 -71 -25.5 -131.5t-75 -104.5t-122.5 -69t-167 -25
q-105 0 -194 35t-149 89l46 75q8 14 20 21.5t32 7.5q19 0 39 -14t48 -30.5t68 -30t100 -13.5q50 0 87 12.5t61.5 34t36.5 49.5t12 59q0 40 -22.5 66.5t-59 45.5t-83.5 33l-96 30t-96 37t-83.5 53t-59 78t-22.5 112q0 59 24.5 113t71 95t115 65.5t156.5 24.5q101 0 182.5 -32
t139.5 -88z" />
    <glyph glyph-name="scedilla" unicode="&#x15f;" horiz-adv-x="869" 
d="M736 841q-8 -13 -17 -18.5t-23 -5.5q-16 0 -35.5 11t-47 24t-64.5 24t-88 11q-42 0 -76.5 -10.5t-58.5 -29t-37 -44t-13 -54.5q0 -38 22.5 -63t59 -43t83 -32.5l95 -30.5t95 -36.5t83 -51t59 -73.5t22.5 -105q0 -65 -21.5 -121t-63 -99t-103 -71t-140.5 -36l-16 -58
q93 -20 133.5 -55.5t40.5 -89.5q0 -33 -16.5 -59t-46 -44t-71 -28t-90.5 -10q-41 0 -77.5 7.5t-68.5 21.5l18 61q6 19 25 19q6 0 14 -3.5t18.5 -7t25.5 -7t35 -3.5q39 0 59.5 16t20.5 40q0 36 -40.5 50.5t-117.5 24.5l41 124q-90 8 -164.5 41t-127.5 81l46 75q8 14 20 21.5
t32 7.5q19 0 39 -14t48 -30.5t68 -30t100 -13.5q50 0 87 12.5t61.5 34t36.5 49.5t12 59q0 40 -22.5 66.5t-59 45.5t-83.5 33l-96 30t-96 37t-83.5 53t-59 78t-22.5 112q0 59 24.5 113t71 95t115 65.5t156.5 24.5q101 0 182.5 -32t139.5 -88z" />
    <glyph glyph-name="s_t.dlig" horiz-adv-x="1602" 
d="M736 841q-8 -13 -17 -18.5t-23 -5.5q-16 0 -35.5 11t-47 24t-64.5 24t-88 11q-42 0 -76.5 -10.5t-58.5 -29t-37 -44t-13 -54.5q0 -38 22.5 -63t59 -43t83 -32.5l95 -30.5t95 -36.5t83 -51t59 -73.5t22.5 -105q0 -71 -25.5 -131.5t-75 -104.5t-122.5 -69t-167 -25
q-105 0 -194 35t-149 89l46 75q8 14 20 21.5t32 7.5q19 0 39 -14t48 -30.5t68 -30t100 -13.5q50 0 87 12.5t61.5 34t36.5 49.5t12 59q0 40 -22.5 66.5t-59 45.5t-83.5 33l-96 30t-96 37t-83.5 53t-59 78t-22.5 112q0 59 24.5 113t71 95t115 65.5t156.5 24.5q55 0 110 -11
q-44 86 -44 183q0 73 23 138t70.5 114.5t119 78.5t169.5 29q95 0 164.5 -28.5t114.5 -75t67 -106.5t22 -122v-232h288v-142h-288v-595q0 -60 29 -89.5t76 -29.5q27 0 46.5 7t33.5 15.5t24 15.5t18 7q9 0 15 -4.5t12 -14.5l58 -94q-48 -44 -114.5 -68t-137.5 -24
q-123 0 -189.5 69t-66.5 197v608h-117q-17 0 -29 10.5t-12 31.5v79l174 24q8 29 16 61.5t14.5 65.5t10.5 66.5t4 63.5q0 46 -13 86.5t-41.5 70.5t-72.5 47t-106 17q-72 0 -126 -22t-90 -60t-53.5 -88t-17.5 -106q0 -71 32.5 -138.5t94.5 -125.5l17.5 -14t16.5 -15z" />
    <glyph glyph-name="glyph121" horiz-adv-x="1603" 
d="M736 841q-8 -13 -17 -18.5t-23 -5.5q-16 0 -35.5 11t-47 24t-64.5 24t-88 11q-42 0 -76.5 -10.5t-58.5 -29t-37 -44t-13 -54.5q0 -38 22.5 -63t59 -43t83 -32.5l95 -30.5t95 -36.5t83 -51t59 -73.5t22.5 -105q0 -65 -21.5 -121t-63 -99.5t-103 -71t-140.5 -35.5l-16 -58
q93 -20 133.5 -55.5t40.5 -89.5q0 -33 -16.5 -59t-46 -44t-71 -28t-90.5 -10q-41 0 -77.5 7.5t-68.5 21.5l18 61q6 19 25 19q6 0 14 -3.5t18.5 -7t25.5 -7t35 -3.5q39 0 59.5 16t20.5 40q0 36 -40.5 50.5t-117.5 24.5l41 125q-90 8 -164.5 40.5t-127.5 80.5l46 75
q8 14 20 21.5t32 7.5q19 0 39 -14t48 -30.5t68 -30t100 -13.5q50 0 87 12.5t61.5 34t36.5 49.5t12 59q0 40 -22.5 66.5t-59 45.5t-83.5 33l-96 30t-96 37t-83.5 53t-59 78t-22.5 112q0 59 24.5 113t71 95t115 65.5t156.5 24.5q55 0 110 -11q-44 86 -44 183q0 73 23 138
t70.5 114.5t119 78.5t169.5 29q95 0 164.5 -28.5t114.5 -75t67 -106.5t22 -122v-232h288v-142h-288v-595q0 -60 29 -89.5t76 -29.5q27 0 46.5 7t33.5 15.5t24 15.5t18 7q9 0 15 -4.5t12 -14.5l58 -94q-48 -44 -114.5 -68t-137.5 -24q-123 0 -189.5 69t-66.5 197v608h-117
q-17 0 -29 10.5t-12 31.5v79l174 24q8 29 16 61.5t14.5 65.5t10.5 66.5t4 63.5q0 46 -13 86.5t-41.5 70.5t-72.5 47t-106 17q-72 0 -126 -22t-90 -60t-53.5 -88t-17.5 -106q0 -71 32.5 -138.5t94.5 -125.5l17.5 -14t16.5 -15z" />
    <glyph glyph-name="germandbls" unicode="&#xdf;" horiz-adv-x="1172" 
d="M632 1459q106 0 183.5 -31t127 -78.5t73.5 -104t24 -107.5q0 -59 -21 -101.5t-52.5 -75t-68 -57.5l-68 -48t-52.5 -47.5t-21 -55.5q0 -38 26 -63.5t65.5 -48l85 -46.5t85 -59.5t65.5 -87.5t26 -129q0 -80 -29 -142t-80 -105t-119.5 -65.5t-147.5 -22.5q-96 0 -176.5 35
t-140.5 89l45 75q9 14 21 21.5t31 7.5t39.5 -14t47 -30.5t63 -30t87.5 -13.5q40 0 73 12.5t56 34.5t35.5 52t12.5 65q0 40 -16 69t-42.5 51t-60 39l-69 34.5t-69 37.5t-60 46.5t-42.5 62.5t-16 86q0 55 22 94.5t55 71t72 58t72 55.5t55 63.5t22 81.5q0 32 -12.5 63.5
t-39.5 56.5t-70.5 40.5t-104.5 15.5q-67 0 -121 -21t-92 -62t-58.5 -103.5t-20.5 -144.5v-983h-196v989q0 105 35 191.5t100 148.5t156.5 96t204.5 34z" />
    <glyph glyph-name="longs" unicode="&#x17f;" horiz-adv-x="577" 
d="M205 1092q0 87 25 155t71.5 115.5t112.5 72t148 24.5q68 0 128 -20l-7 -102q-1 -11 -8 -15.5t-19 -6.5t-28 -1.5t-34 0.5q-45 0 -81 -12t-61 -39t-38 -70.5t-13 -106.5v-1086h-196v856l-106 13q-23 5 -37.5 16.5t-14.5 33.5v81h158v92z" />
    <glyph glyph-name="t" unicode="t" horiz-adv-x="724" 
d="M455 -16q-123 0 -189.5 69t-66.5 197v608h-118q-17 0 -28.5 10.5t-11.5 31.5v79l165 23l44 303q4 17 15.5 26.5t29.5 9.5h99v-341h288v-142h-288v-595q0 -60 29.5 -89.5t75.5 -29.5q27 0 46.5 7t33.5 15.5t24 15.5t18 7q10 0 15.5 -4.5t11.5 -14.5l58 -94
q-48 -44 -114 -68t-137 -24z" />
    <glyph glyph-name="tcaron" unicode="&#x165;" horiz-adv-x="722" 
d="M453 -16q-123 0 -189.5 69t-66.5 197v608h-118q-17 0 -28.5 10.5t-11.5 31.5v79l165 23l44 303q4 17 15.5 26.5t29.5 9.5h99v-341h288v-142h-288v-595q0 -60 29.5 -89.5t75.5 -29.5q27 0 46.5 7t33.5 15.5t24 15.5t18 7q10 0 15.5 -4.5t11.5 -14.5l58 -94
q-48 -44 -114 -68t-137 -24zM785 1478q23 0 29 -11t6 -23q0 -9 -3.5 -25.5t-13 -46t-26 -75l-42.5 -113.5q-11 -23 -27 -30.5t-43 -7.5h-68l58 332h130z" />
    <glyph glyph-name="tbar" unicode="&#x167;" horiz-adv-x="731" 
d="M63 693h139v165h-118q-17 0 -28.5 10.5t-11.5 31.5v79l165 23l44 303q4 17 15.5 26.5t29.5 9.5h99v-341h288v-142h-288v-165h292v-124h-292v-306q0 -60 29.5 -89.5t75.5 -29.5q27 0 46.5 7t33.5 15.5t24 15.5t18 7q10 0 15.5 -4.5t11.5 -14.5l58 -94q-48 -44 -114 -68
t-137 -24q-123 0 -189.5 69t-66.5 197v319h-139v124z" />
    <glyph glyph-name="u" unicode="u" horiz-adv-x="1118" 
d="M982 1016v-1016h-117q-40 0 -52 39l-14 102q-33 -35 -69 -64t-77 -49.5t-87 -32t-99 -11.5q-84 0 -147.5 28t-106.5 78.5t-65 121.5t-22 157v647h196v-647q0 -109 50 -169.5t153 -60.5q75 0 140 35.5t122 97.5v744h195z" />
    <glyph glyph-name="uogonek" unicode="&#x173;" horiz-adv-x="1118" 
d="M1090 -291q-31 -23 -78 -37t-99 -14q-91 0 -141.5 39.5t-50.5 105.5q0 57 38 107.5t101 89.5q-37 3 -47 39l-14 102q-33 -35 -69 -64t-77 -49.5t-87 -32t-99 -11.5q-84 0 -147.5 28t-106.5 78.5t-65 121.5t-22 157v647h196v-647q0 -109 50 -169.5t153 -60.5
q75 0 140 35.5t122 97.5v744h195v-1016q-20 -11 -40.5 -26t-37 -34t-27 -41.5t-10.5 -47.5q0 -35 23.5 -56t62.5 -21q22 0 36.5 3.5t24 7t15.5 7t11 3.5q15 0 20 -13z" />
    <glyph glyph-name="v" unicode="v" horiz-adv-x="1038" 
d="M1019 1016l-412 -1016h-176l-412 1016h161q23 0 38 -11t20 -28l243 -624q13 -39 22.5 -77.5t17.5 -76.5q8 38 18 76t24 78l246 624q6 17 21 28t36 11h153z" />
    <glyph glyph-name="w" unicode="w" horiz-adv-x="1579" 
d="M1550 1016l-327 -1016h-156q-28 0 -38 37l-214 662q-8 25 -14 49.5t-11 49.5q-9 -52 -25 -101l-217 -660q-10 -37 -43 -37h-148l-328 1016h154q23 0 38.5 -11t20.5 -28l183 -624q9 -38 16 -74t13 -72q9 36 19.5 72l21.5 74l203 628q5 17 19 27.5t34 10.5h85
q22 0 36.5 -10.5t19.5 -27.5l198 -628l21 -74.5t18 -73.5q6 36 14 72.5t18 75.5l186 624q5 17 20.5 28t35.5 11h147z" />
    <glyph glyph-name="x" unicode="x" horiz-adv-x="1008" 
d="M989 0h-188q-23 0 -36.5 12.5t-21.5 26.5l-245 387l-10 -29t-13 -26l-225 -332q-10 -14 -23 -26.5t-34 -12.5h-174l354 523l-340 493h188q23 0 33.5 -7t18.5 -21l241 -371q5 15 11 29.5t16 30.5l207 307q18 32 48 32h179l-340 -484z" />
    <glyph glyph-name="y" unicode="y" horiz-adv-x="1037" 
d="M1025 1016l-564 -1311q-9 -22 -24 -34t-44 -12h-145l186 405l-417 952h170q25 0 39 -12t20 -27l258 -610l15.5 -46.5t12.5 -46.5q7 24 15 47.5t17 46.5l249 609q7 17 22 28t34 11h156z" />
    <glyph glyph-name="z" unicode="z" horiz-adv-x="908" 
d="M845 934q0 -21 -7.5 -41t-19.5 -34l-533 -706h542v-153h-771v82q0 14 7 33.5t20 36.5l536 711h-532v153h758v-82z" />
    <glyph glyph-name="ordfeminine" unicode="&#xaa;" horiz-adv-x="735" 
d="M470 1099q-67 -2 -113 -10t-74 -21t-40 -29.5t-12 -36.5q0 -39 24.5 -55t63.5 -16q48 0 82 17.5t69 51.5v99zM127 1358q53 50 114.5 73t136.5 23q54 0 97 -17t73 -48t45.5 -73.5t15.5 -93.5v-382h-66q-20 0 -30 6t-18 25l-13 46q-24 -21 -46.5 -37t-47 -26.5t-52 -16
t-61.5 -5.5q-39 0 -72 10.5t-57 30.5t-37.5 50.5t-13.5 71.5q0 34 18.5 68t62.5 61t115.5 44.5t178.5 19.5v34q0 61 -27.5 89t-81.5 28q-37 0 -61.5 -8.5t-42.5 -18.5l-32.5 -18.5t-31.5 -8.5q-15 0 -25 9t-17 18z" />
    <glyph glyph-name="ordmasculine" unicode="&#xba;" horiz-adv-x="804" 
d="M403 1453q70 0 128 -21.5t98.5 -62t63 -98t22.5 -129.5q0 -73 -22.5 -131t-63 -98.5t-98.5 -62.5t-128 -22q-71 0 -129 22t-99 62.5t-63.5 98.5t-22.5 131q0 72 22.5 129.5t63.5 98t99 62t129 21.5zM403 945q159 0 159 196t-159 196q-83 0 -122 -49.5t-39 -146.5
t39 -146.5t122 -49.5z" />
    <glyph glyph-name="ordfeminine.case" horiz-adv-x="812" 
d="M480 1070l-60 164q-5 11 -8 23l-6 25q-6 -26 -15 -49l-60 -163h149zM705 841h-110q-16 0 -26 7.5t-15 20.5l-36 99h-225l-36 -99q-3 -11 -14 -19.5t-26 -8.5h-110l236 595h126z" />
    <glyph glyph-name="a.superior" horiz-adv-x="556" 
d="M348 1131q-51 -2 -85 -8.5t-54 -16t-28.5 -22t-8.5 -27.5q0 -29 17.5 -41.5t46.5 -12.5q35 0 60.5 12t51.5 38v78zM64 1364q93 82 222 82q46 0 82.5 -15t62 -42t39 -64.5t13.5 -82.5v-327h-63q-20 0 -30 6t-17 24l-11 32q-20 -17 -38.5 -30t-38 -22t-42 -13.5t-50.5 -4.5
q-69 0 -111 36t-42 107q0 28 14.5 57t50 52.5t95 39.5t148.5 18v25q0 48 -21 70.5t-59 22.5q-29 0 -48.5 -6.5t-34 -14.5l-27 -14.5t-28.5 -6.5q-14 0 -24 7.5t-17 18.5z" />
    <glyph glyph-name="b.superior" horiz-adv-x="615" 
d="M218 1054q20 -23 43 -31.5t49 -8.5q51 0 82 38.5t31 126.5q0 86 -26.5 121t-72.5 35q-32 0 -57 -13.5t-49 -41.5v-226zM218 1377q30 31 68 49t89 18q42 0 77 -17.5t60.5 -51.5t39.5 -83t14 -113q0 -58 -16 -108t-45.5 -86.5t-70.5 -57t-91 -20.5q-48 0 -79 18.5t-57 48.5
l-3 -32q-3 -15 -11 -21t-22 -6h-91v753h138v-291z" />
    <glyph glyph-name="c.superior" horiz-adv-x="529" 
d="M452 1318q-7 -8 -12.5 -12.5t-16.5 -4.5q-10 0 -19.5 5.5l-21.5 12.5t-28.5 12.5t-41.5 5.5q-63 0 -93 -42.5t-30 -118.5q0 -78 32 -120t88 -42q29 0 46.5 7t29.5 15.5t21 15.5t22 7q8 0 14.5 -3t10.5 -10l40 -51q-22 -26 -47.5 -43t-52.5 -27t-54.5 -14t-54.5 -4
q-48 0 -91 18t-75.5 52.5t-51 84.5t-18.5 114q0 57 16.5 106t48.5 85t80 56.5t110 20.5q60 0 105 -19t80 -56z" />
    <glyph glyph-name="d.superior" horiz-adv-x="615" 
d="M397 1300q-20 22 -42.5 30.5t-48.5 8.5q-51 0 -82.5 -38.5t-31.5 -126.5q0 -86 27 -121t77 -35q32 0 56 13.5t45 39.5v229zM536 1668v-753h-85q-28 0 -35 25l-7 49q-32 -36 -72 -59t-96 -23q-42 0 -77 18t-60.5 52t-39.5 84t-14 113q0 58 16 108t45 86.5t70 57t92 20.5
q42 0 71.5 -13t52.5 -34v269h139z" />
    <glyph glyph-name="e.superior" horiz-adv-x="579" 
d="M406 1237q0 21 -6 40.5t-18.5 34t-32 23.5t-46.5 9q-50 0 -78.5 -28t-36.5 -79h218zM186 1153q7 -72 41.5 -104.5t91.5 -32.5q29 0 50 6.5t37 15l29 15t25 6.5q18 0 25 -13l40 -51q-22 -26 -49 -43t-55.5 -27t-57.5 -14t-56 -4q-54 0 -101.5 18t-82.5 53t-55 87.5
t-20 121.5q0 52 17.5 99t50 82t79 55.5t105.5 20.5q50 0 92 -16t72.5 -46.5t47.5 -74.5t17 -101q0 -32 -6 -42.5t-25 -10.5h-312z" />
    <glyph glyph-name="f.superior" horiz-adv-x="400" 
d="M377 1581q-1 -15 -12.5 -20t-34.5 -5q-39 0 -62 -20t-23 -74v-28h130v-100h-125v-419h-138v419l-41 7q-15 4 -25 12t-10 23v58h76v33q0 90 53 142t147 52q35 0 68 -9z" />
    <glyph glyph-name="g.superior" horiz-adv-x="576" 
d="M266 1197q43 0 63.5 20.5t20.5 54.5q0 35 -20.5 55.5t-63.5 20.5t-63.5 -20.5t-20.5 -55.5q0 -33 20.5 -54t63.5 -21zM398 897q0 20 -19 28.5t-48 11.5t-65.5 3.5t-70.5 4.5q-17 -11 -27.5 -24t-10.5 -29q0 -26 25 -45t92 -19q63 0 93.5 20.5t30.5 48.5zM535 1419v-53
q0 -23 -29 -30l-42 -9q8 -24 8 -51q0 -39 -15.5 -70t-43.5 -53t-65.5 -34t-81.5 -12q-14 0 -27 1.5t-26 3.5q-21 -13 -21 -28q0 -19 24.5 -25t62 -7.5t80.5 -4t80.5 -14.5t62 -38t24.5 -76q0 -35 -17 -68t-49.5 -59t-80 -42t-108.5 -16q-60 0 -104 11.5t-73 30.5t-43 43.5
t-14 51.5q0 35 20.5 59t57.5 38q-19 11 -30 29.5t-11 46.5q0 23 16.5 49t51.5 43q-40 22 -63 57.5t-23 82.5q0 39 16 70.5t44 53.5t66.5 33.5t83.5 11.5q67 0 117 -26h152z" />
    <glyph glyph-name="h.superior" horiz-adv-x="615" 
d="M218 1385q29 26 64 42.5t83 16.5q43 0 75.5 -15t55 -41t34 -62.5t11.5 -79.5v-331h-138v331q0 42 -20 65.5t-60 23.5q-29 0 -55.5 -12.5t-49.5 -34.5v-373h-138v753h138v-283z" />
    <glyph glyph-name="i.superior" horiz-adv-x="294" 
d="M216 1412v-497h-138v497h138zM235 1583q0 -18 -7 -33.5t-19 -27t-27.5 -18.5t-33.5 -7q-17 0 -32.5 7t-27 18.5t-18.5 27t-7 33.5t7 33.5t18.5 27.5t27 18.5t32.5 6.5q18 0 33.5 -6.5t27.5 -18.5t19 -27.5t7 -33.5z" />
    <glyph glyph-name="j.superior" horiz-adv-x="295" 
d="M217 1412v-505q0 -35 -9 -66.5t-29.5 -55t-53.5 -37.5t-81 -14q-19 0 -34.5 2.5t-32.5 7.5l5 75q2 11 8 15t25 4q37 0 50 14.5t13 54.5v505h139zM235 1583q0 -18 -7 -33.5t-18.5 -27t-27.5 -18.5t-34 -7q-17 0 -32.5 7t-27 18.5t-18.5 27t-7 33.5t7 33.5t18.5 27.5
t27 18.5t32.5 6.5q36 0 61.5 -25t25.5 -61z" />
    <glyph glyph-name="k.superior" horiz-adv-x="593" 
d="M574 915h-125q-16 0 -28.5 5t-17.5 20l-118 189q-6 14 -14.5 17t-23.5 3h-29v-234h-138v753h138v-426h23q14 0 22 3.5t14 14.5l116 152q6 13 18 18.5t29 5.5h126l-150 -188q-15 -27 -41 -42q24 -12 37 -40z" />
    <glyph glyph-name="l.superior" horiz-adv-x="298" 
d="M218 1668v-753h-138v753h138z" />
    <glyph glyph-name="m.superior" horiz-adv-x="894" 
d="M201 1371q29 32 62.5 52.5t81.5 20.5t79.5 -25.5t47.5 -67.5q26 50 71.5 71.5t95.5 21.5q88 0 134.5 -51.5t46.5 -146.5v-331h-138v331q0 89 -79 89q-35 0 -59 -22.5t-24 -66.5v-331h-138v331q0 43 -18.5 66t-58.5 23q-25 0 -46.5 -11t-40.5 -31v-378h-138v521h85
q26 0 32 -26z" />
    <glyph glyph-name="uni207F" unicode="&#x207f;" horiz-adv-x="614" 
d="M198 1365q33 35 71.5 57t95.5 22q43 0 75.5 -15t54.5 -41t33.5 -62.5t11.5 -79.5v-331h-137v331q0 42 -20 65t-61 23q-29 0 -55 -12.5t-49 -34.5v-372h-138v521h73q26 0 37 -29z" />
    <glyph glyph-name="o.superior" horiz-adv-x="617" 
d="M309 1444q58 0 106 -18.5t82.5 -53.5t53 -84.5t18.5 -111.5t-18.5 -111.5t-53 -84.5t-82.5 -54t-106 -19q-59 0 -107 19t-82 54t-53 84.5t-19 111.5t19 111.5t53 84.5t82 53.5t107 18.5zM309 1015q118 0 118 161t-118 161q-119 0 -119 -161t119 -161z" />
    <glyph glyph-name="p.superior" horiz-adv-x="616" 
d="M218 1054q20 -23 43.5 -31.5t49.5 -8.5q51 0 82 38.5t31 126.5q0 43 -7 73t-19.5 48.5t-30 26.5t-39.5 8q-38 0 -62.5 -14.5t-47.5 -41.5v-225zM206 1363q32 37 72.5 60t97.5 23q42 0 76.5 -18t60 -52t39.5 -83.5t14 -113.5q0 -58 -16 -108t-45.5 -86.5t-70.5 -57
t-91 -20.5q-43 0 -72 12.5t-53 34.5v-206h-138v688h85q29 0 35 -24z" />
    <glyph glyph-name="q.superior" horiz-adv-x="615" 
d="M397 1299q-20 23 -43 31.5t-49 8.5q-54 0 -84 -40t-30 -125q0 -43 7.5 -73t20.5 -48.5t31.5 -26.5t40.5 -8q33 0 58 14.5t48 41.5v225zM535 1436v-688h-138v229q-31 -32 -68.5 -51t-88.5 -19q-42 0 -77 18t-60.5 52t-39.5 84t-14 113q0 58 16 108t45.5 86.5t70.5 57
t92 20.5q48 0 80 -16.5t58 -43.5l5 26q7 24 34 24h85z" />
    <glyph glyph-name="r.superior" horiz-adv-x="413" 
d="M206 1345q26 47 59 74t78 27q33 0 57 -16l-9 -106q-4 -19 -22 -19q-8 0 -23 2.5t-29 2.5q-39 0 -61 -21t-38 -58v-316h-138v521h82q21 0 28 -7.5t12 -27.5z" />
    <glyph glyph-name="s.superior" horiz-adv-x="485" 
d="M401 1327q-10 -16 -27 -16q-10 0 -21 5l-24 10.5t-30 10.5t-39 5q-34 0 -53 -13t-19 -36q0 -21 18.5 -32.5t46 -21t59.5 -19.5t59.5 -26.5t46 -42.5t18.5 -68q0 -38 -13.5 -70.5t-40.5 -56t-66.5 -36.5t-91.5 -13q-54 0 -103.5 18t-79.5 46l32 54q6 9 14 14.5t21 5.5
t23.5 -6.5l23.5 -14t31 -13.5t45 -6q42 0 59 16.5t17 36.5q0 22 -18.5 34t-46.5 21.5t-60 19t-60 27t-46.5 46.5t-18.5 76q0 33 12.5 62t38 51.5t62.5 35.5t87 13q55 0 100.5 -18.5t74.5 -47.5z" />
    <glyph glyph-name="t.superior" horiz-adv-x="432" 
d="M394 953q-28 -23 -64.5 -34.5t-75.5 -11.5q-70 0 -107.5 40t-37.5 109v278h-50q-11 0 -18.5 7.5t-7.5 21.5v56l84 16l27 133q5 23 31 23h71v-157h135v-100h-135v-268q0 -21 11 -33.5t30 -12.5q20 0 29 7t19 7q6 0 9.5 -3t8.5 -10z" />
    <glyph glyph-name="u.superior" horiz-adv-x="614" 
d="M534 1436v-521h-85q-25 0 -34 25l-7 38q-32 -32 -69 -51.5t-90 -19.5q-42 0 -75 15t-55 41t-33.5 62.5t-11.5 79.5v331h137v-331q0 -42 20.5 -65.5t60.5 -23.5q29 0 55 13t49 35v372h138z" />
    <glyph glyph-name="v.superior" horiz-adv-x="548" 
d="M541 1436l-205 -521h-125l-204 521h114q15 0 26 -7t13 -19l93 -253l11.5 -55l10.5 -52l12 52.5l13 55.5l94 252q3 12 13 19t24 7h110z" />
    <glyph glyph-name="w.superior" horiz-adv-x="852" 
d="M25 1436h113q15 0 26.5 -7.5t13.5 -24.5l68 -244q4 -26 8 -49l8 -46q5 23 11 46l13 49l78 247q9 30 38 30h55q32 0 40 -31l77 -246l11 -47.5t9 -45.5l18 92l71 246q3 16 13.5 23.5t24.5 7.5h108l-167 -521h-108q-19 0 -26 25l-87 277q-5 16 -8 31l-6 31q-4 -30 -14 -64
l-89 -275q-6 -25 -29 -25h-106z" />
    <glyph glyph-name="x.superior" horiz-adv-x="581" 
d="M558 915h-133q-14 0 -23.5 7.5t-14.5 18.5l-103 174q-3 -10 -6 -19t-8 -17l-88 -138q-5 -10 -14 -18t-23 -8h-123l176 269l-169 252h133q15 0 22 -4t12 -13l104 -168q5 18 15 40l78 125q10 20 32 20h126l-169 -245z" />
    <glyph glyph-name="y.superior" horiz-adv-x="549" 
d="M544 1436l-277 -651q-9 -21 -19 -29t-30 -8h-103l99 210l-209 478h121q17 0 25.5 -7.5t12.5 -18.5l100 -243q5 -15 9.5 -30.5l8.5 -30.5l10 32.5l10 31.5l98 240q4 11 14 18.5t23 7.5h107z" />
    <glyph glyph-name="z.superior" horiz-adv-x="502" 
d="M455 1378q0 -15 -5 -30t-16 -27l-231 -298h246v-108h-406v59q0 9 5 23.5t17 29.5l232 302h-240v107h398v-58z" />
    <glyph glyph-name="grave" unicode="`" 
d="M303 1452q35 0 52 -11.5t31 -34.5l147 -242h-111q-23 0 -37.5 6.5t-29.5 23.5l-237 258h185z" />
    <glyph glyph-name="grave.case" 
d="M239 1854q34 0 52 -5.5t36 -28.5l225 -274h-140q-23 0 -36.5 3t-30.5 18l-314 287h208z" />
    <glyph glyph-name="acute" unicode="&#xb4;" 
d="M705 1452l-237 -258q-15 -17 -29 -23.5t-37 -6.5h-118l148 242q14 23 30.5 34.5t51.5 11.5h191z" />
    <glyph glyph-name="acute.case" 
d="M801 1854l-326 -286q-17 -14 -31 -18t-37 -4h-141l226 274q9 12 17.5 18.5t18.5 10t23 4.5t30 1h220z" />
    <glyph glyph-name="circumflex" unicode="&#x2c6;" 
d="M716 1169h-131q-12 0 -23.5 4t-24.5 16l-117 125q-8 8 -17 20q-9 -12 -17 -20l-119 -125q-10 -10 -22.5 -15t-24.5 -5h-136l225 267h182z" />
    <glyph glyph-name="circumflex.case" 
d="M730 1546h-142q-13 0 -31 4.5t-36 27.5l-109 132l-12 18l-12 -18l-109 -132q-18 -23 -36 -27.5t-31 -4.5h-136l239 273h176z" />
    <glyph glyph-name="caron" unicode="&#x2c7;" 
d="M716 1436l-225 -267h-182l-225 267h136q12 0 23.5 -4.5t18.5 -10.5l122 -130q9 -9 18 -21q9 12 18 21l123 130q7 5 18.5 10t23.5 5h131z" />
    <glyph glyph-name="caron.case" 
d="M730 1819l-239 -273h-182l-239 273h142q13 0 30.5 -3t31.5 -22l114 -142q3 -5 6 -9.5t6 -8.5q3 4 6 8.5t6 9.5l114 141q14 20 31.5 23t30.5 3h142z" />
    <glyph glyph-name="uni0315" unicode="&#x315;" 
d="M484 1478q23 0 29 -11t6 -23q0 -9 -3.5 -25.5t-13 -46t-26 -75l-42.5 -113.5q-11 -23 -27 -30.5t-43 -7.5h-68l58 332h130z" />
    <glyph glyph-name="tilde" unicode="&#x2dc;" 
d="M510 1334q34 0 52.5 20t19.5 64h119q0 -50 -13.5 -91t-37.5 -70.5t-58 -45.5t-75 -16q-35 0 -65.5 14t-57.5 31t-51.5 31t-46.5 14q-33 0 -51.5 -21t-19.5 -64h-121q0 49 13.5 90.5t38.5 70.5t58.5 45.5t74.5 16.5q36 0 66.5 -14t57.5 -30.5l51 -30.5t46 -14z" />
    <glyph glyph-name="tilde.case" 
d="M526 1673q23 0 40 8.5t28.5 22.5t17.5 31.5t6 35.5h119q0 -45 -12.5 -86t-36.5 -72.5t-59 -50.5t-81 -19t-82 16t-66.5 35.5l-57.5 36t-54 16.5q-23 0 -40 -9t-28 -23.5t-17 -32.5t-6 -35h-121q0 45 12.5 86.5t37 73.5t59.5 51t80 19q47 0 83 -16.5t66.5 -36l57 -35.5
t54.5 -16z" />
    <glyph glyph-name="dieresis" unicode="&#xa8;" 
d="M326 1290q0 -24 -10 -45.5t-26.5 -37.5t-38.5 -25t-46 -9t-45 9t-37 25t-25.5 37.5t-9.5 45.5q0 25 9.5 47t25.5 38.5t37 26t45 9.5t46 -9.5t38.5 -26t26.5 -38.5t10 -47zM712 1290q0 -24 -9.5 -45.5t-25.5 -37.5t-38 -25t-46 -9t-46 9t-38 25t-25.5 37.5t-9.5 45.5
q0 25 9.5 47t25.5 38.5t38 26t46 9.5t46 -9.5t38 -26t25.5 -38.5t9.5 -47z" />
    <glyph glyph-name="dieresis.case" 
d="M304 1666q0 -24 -9.5 -44.5t-25.5 -36t-37.5 -24.5t-45.5 -9q-23 0 -43.5 9t-36 24.5t-25 36t-9.5 44.5t9.5 45.5t25 37.5t36 25.5t43.5 9.5q24 0 45.5 -9.5t37.5 -25.5t25.5 -37.5t9.5 -45.5zM728 1666q0 -24 -9.5 -44.5t-25.5 -36t-37 -24.5t-44 -9q-24 0 -45 9
t-37 24.5t-25 36t-9 44.5t9 45.5t25 37.5t37 25.5t45 9.5q23 0 44 -9.5t37 -25.5t25.5 -37.5t9.5 -45.5z" />
    <glyph glyph-name="macron" unicode="&#xaf;" 
d="M110 1354h580v-127h-580v127z" />
    <glyph glyph-name="macron" unicode="&#x2c9;" 
d="M110 1354h580v-127h-580v127z" />
    <glyph glyph-name="macron.case" 
d="M116 1699h568v-115h-568v115z" />
    <glyph glyph-name="breve" unicode="&#x2d8;" 
d="M400 1164q-79 0 -132.5 21.5t-86.5 59t-47.5 86.5t-14.5 105h138q0 -32 6.5 -59t23 -46.5t44 -30t69.5 -10.5t69.5 10.5t44 30t23 46.5t6.5 59h138q0 -56 -14.5 -105t-47.5 -86.5t-86.5 -59t-132.5 -21.5z" />
    <glyph glyph-name="breve.case" 
d="M400 1545q-72 0 -129 16t-96.5 49t-60.5 83t-21 118h150q0 -35 8 -62t26.5 -45.5t48.5 -28.5t74 -10q87 0 121.5 38.5t34.5 107.5h150q0 -127 -81 -196.5t-225 -69.5z" />
    <glyph glyph-name="ring" unicode="&#x2da;" 
d="M194 1318q0 43 16.5 78t44.5 60.5t65.5 39.5t78.5 14q42 0 79.5 -14t66 -39.5t45.5 -60.5t17 -78q0 -42 -17 -77t-45.5 -59.5t-66 -38.5t-79.5 -14q-41 0 -78.5 14t-65.5 38.5t-44.5 59.5t-16.5 77zM303 1318q0 -43 26 -70t72 -27q44 0 70.5 27t26.5 70q0 44 -26.5 71
t-70.5 27q-46 0 -72 -27t-26 -71z" />
    <glyph glyph-name="ring.case" 
d="M206 1699q0 40 15.5 73.5t42 57.5t61.5 37.5t73 13.5q40 0 75.5 -13.5t62.5 -37.5t42.5 -57.5t15.5 -73.5q0 -39 -15.5 -72t-42.5 -56t-62.5 -36t-75.5 -13q-38 0 -73 13t-61.5 36t-42 56t-15.5 72zM302 1699q0 -42 26 -69.5t73 -27.5q43 0 70 27.5t27 69.5q0 45 -27 72
t-70 27q-47 0 -73 -27t-26 -72z" />
    <glyph glyph-name="glyph189" 
d="M194 1314q0 43 16.5 78.5t44.5 60.5t65.5 39t78.5 14q42 0 79.5 -14t66 -39t45.5 -60.5t17 -78.5q0 -42 -17 -77t-45.5 -59.5t-66 -38.5t-79.5 -14q-41 0 -78.5 14t-65.5 38.5t-44.5 59.5t-16.5 77zM303 1314q0 -42 26 -69.5t72 -27.5q44 0 70.5 27.5t26.5 69.5
q0 45 -26.5 71.5t-70.5 26.5q-46 0 -72 -26.5t-26 -71.5zM760 1858l-237 -259q-15 -16 -29.5 -22.5t-37.5 -6.5h-117l147 242q14 23 31 34.5t52 11.5h191z" />
    <glyph glyph-name="glyph190" 
d="M215 1660q0 38 15 70t40 54.5t58 35t70 12.5t71 -12.5t59 -35t40 -54.5t15 -70t-15 -69t-40 -53t-59 -34.5t-71 -12.5t-70 12.5t-58 34.5t-40 53t-15 69zM305 1660q0 -41 25 -67.5t69 -26.5q42 0 68.5 26.5t26.5 67.5q0 43 -26.5 68.5t-68.5 25.5q-44 0 -69 -25.5
t-25 -68.5zM810 2112l-294 -211q-17 -14 -31.5 -18t-37.5 -4h-140l195 199q9 12 17 18.5t18 10t23 4.5t30 1h220z" />
    <glyph glyph-name="hungarumlaut" unicode="&#x2dd;" 
d="M524 1452l-199 -258q-13 -17 -28 -23.5t-38 -6.5h-81l135 242q13 23 30.5 34.5t52.5 11.5h128zM847 1452l-245 -258q-15 -17 -29 -23.5t-37 -6.5h-94l180 242q8 11 15.5 19.5t16.5 14.5t21 9t29 3h143z" />
    <glyph glyph-name="hungarumlaut.case" 
d="M521 1819l-206 -243q-16 -14 -29.5 -22t-36.5 -8h-93l145 227q14 23 35.5 34.5t56.5 11.5h128zM899 1819l-251 -243q-17 -15 -33 -22.5t-39 -7.5h-106l185 227q18 22 40 34t57 12h147z" />
    <glyph glyph-name="dotaccent" unicode="&#x2d9;" 
d="M535 1336q0 -27 -11 -51.5t-29.5 -43t-43.5 -29t-52 -10.5t-51 10.5t-42.5 29t-29 43t-10.5 51.5q0 28 10.5 53t29 43.5t42.5 29t51 10.5t52 -10.5t43.5 -29t29.5 -43.5t11 -53z" />
    <glyph glyph-name="dotaccent.case" 
d="M529 1690q0 -26 -10.5 -49t-28.5 -40.5t-41.5 -28t-50.5 -10.5q-26 0 -49 10.5t-40 28t-27.5 40.5t-10.5 49q0 27 10.5 50.5t27.5 41.5t40 28.5t49 10.5q27 0 50.5 -10.5t41.5 -28.5t28.5 -41.5t10.5 -50.5z" />
    <glyph glyph-name="cedilla" unicode="&#xb8;" 
d="M435 -71q93 -20 133.5 -55.5t40.5 -89.5q0 -33 -16.5 -59t-46 -44t-71 -28t-90.5 -10q-41 0 -77.5 7.5t-68.5 21.5l18 61q6 19 25 19q6 0 14 -3.5t18.5 -7t25.5 -7t35 -3.5q39 0 59.5 16t20.5 40q0 36 -40.5 50.5t-117.5 24.5l55 166h111z" />
    <glyph glyph-name="ogonek" unicode="&#x2db;" 
d="M543 -205q15 0 20 -13l30 -73q-31 -23 -78 -37t-99 -14q-91 0 -141.5 39.5t-50.5 105.5q0 61 44.5 115.5t115.5 94.5l101 -13q-20 -11 -40.5 -26t-37 -34t-27 -41.5t-10.5 -47.5q0 -35 23.5 -56t62.5 -21q22 0 36.5 3.5t24 7t15.5 7t11 3.5z" />
    <glyph glyph-name="glyph197" 
d="M460 -94q23 0 29 -11t6 -23q0 -10 -2.5 -26.5t-9.5 -43t-20 -64t-33 -89.5q-11 -23 -27 -30.5t-42 -7.5h-69l50 295h118z" />
    <glyph glyph-name="glyph198" 
d="M484 1160h-172l98 283h123z" />
    <glyph glyph-name="Gamma" unicode="&#x393;" horiz-adv-x="1097" 
d="M1067 1269h-676v-1269h-214v1436h890v-167z" />
    <glyph glyph-name="Delta" unicode="&#x394;" horiz-adv-x="1366" 
d="M245 171h855l-375 921q-11 30 -24 70t-24 87q-11 -48 -24 -87.5t-26 -71.5zM1315 190q26 -64 26 -127v-63h-1316v61q0 29 6 61t19 65l527 1249h216z" />
    <glyph glyph-name="Theta" unicode="&#x398;" horiz-adv-x="1605" 
d="M524 811h555v-173h-555v173zM1515 718q0 -161 -51.5 -295.5t-145.5 -232t-225 -151.5t-291 -54q-159 0 -290.5 54t-225 151.5t-145.5 232t-52 295.5q0 160 52 295t145.5 232.5t225 152t290.5 54.5q160 0 291 -54.5t225 -152t145.5 -232.5t51.5 -295zM1297 718
q0 128 -35 230t-99.5 173t-156 109t-204.5 38t-204.5 -38t-156.5 -109t-100 -173t-35 -230q0 -129 35 -230.5t100 -172.5t156.5 -108.5t204.5 -37.5t204.5 37.5t156 108.5t99.5 172.5t35 230.5z" />
    <glyph glyph-name="Lambda" unicode="&#x39b;" horiz-adv-x="1360" 
d="M1359 0h-182q-28 0 -45.5 14t-26.5 36l-388 976q-14 36 -27.5 79t-24.5 90q-10 -47 -22 -90t-26 -79l-387 -976q-7 -19 -25.5 -34.5t-45.5 -15.5h-159l584 1436h191z" />
    <glyph glyph-name="Xi" unicode="&#x39e;" horiz-adv-x="1240" 
d="M1162 1436v-179h-1079v179h1079zM1162 179v-179h-1079v179h1079zM331 817h580v-185h-580v185z" />
    <glyph glyph-name="Pi" unicode="&#x3a0;" horiz-adv-x="1531" 
d="M1353 0h-213v1269h-749v-1269h-214v1436h1176v-1436z" />
    <glyph glyph-name="Sigma" unicode="&#x3a3;" horiz-adv-x="1219" 
d="M456 1269q-49 0 -88 3.5t-78 11.5q43 -23 77 -49t63 -60l271 -337q17 -20 27.5 -34.5t16.5 -26.5t8 -22t2 -19q1 -23 -9.5 -48t-45.5 -65l-310 -378q-30 -35 -51 -55t-42 -33q38 5 71.5 7.5t62.5 2.5h713v-167h-1079v80q0 24 11 47.5t28 41.5l464 547l-478 567
q-11 12 -18 28t-7 33v92h1079v-167h-688z" />
    <glyph glyph-name="Phi" unicode="&#x3a6;" horiz-adv-x="1675" 
d="M938 245q106 1 192 39t146.5 102.5t93 150.5t32.5 184q0 97 -32.5 183.5t-93 151t-146.5 102.5t-192 40v-953zM737 1198q-106 -2 -192 -40t-146.5 -102.5t-93 -151t-32.5 -183.5q0 -98 32.5 -184t93 -150.5t146.5 -102.5t192 -39v953zM938 1364q155 -1 279 -52.5
t211 -138.5t133.5 -203.5t46.5 -248.5t-46.5 -248t-133.5 -203.5t-211 -138.5t-279 -52v-193h-201v193q-155 1 -279 52t-211 138.5t-133.5 203.5t-46.5 248t47 248.5t134 203.5t211 138.5t278 52.5v186h201v-186z" />
    <glyph glyph-name="Psi" unicode="&#x3a8;" horiz-adv-x="1640" 
d="M1543 1436v-513q0 -128 -39.5 -231t-117.5 -177.5t-193.5 -117t-267.5 -48.5v-349h-213v349q-152 6 -267 49t-192.5 117t-117 177.5t-39.5 230.5v513h142q34 0 52.5 -21t18.5 -52v-440q0 -93 22.5 -165.5t71 -123.5t125 -79.5t184.5 -33.5v915h213v-915q108 5 185 33.5
t126 79.5t71.5 123.5t22.5 165.5v440q0 31 18.5 52t52.5 21h142z" />
    <glyph glyph-name="Omega" unicode="&#x3a9;" horiz-adv-x="1620" 
d="M1520 179v-110q0 -30 -19.5 -49.5t-52.5 -19.5h-523v245q78 14 145.5 61t117 118.5t78 163t28.5 194.5q0 121 -39 212t-105.5 152t-154.5 91t-185 30t-185 -30t-154.5 -91t-106 -152t-39.5 -212q0 -103 28.5 -194.5t78.5 -163t117.5 -118.5t145.5 -61v-245h-523
q-33 0 -52.5 19.5t-19.5 49.5v110h272q39 0 79.5 -4t80.5 -10q-91 31 -167.5 90t-132 139t-87 179t-31.5 211q0 148 54.5 271t149 211t221 136.5t271.5 48.5t271.5 -48.5t221 -136.5t149 -211t54.5 -271q0 -112 -31.5 -211t-87 -179t-132 -139t-167.5 -90q40 6 80.5 10
t79.5 4h272z" />
    <glyph glyph-name="alpha" unicode="&#x3b1;" horiz-adv-x="1189" 
d="M814 714q-15 33 -38 63.5t-54.5 54t-70.5 37.5t-86 14q-57 0 -108.5 -23t-90.5 -70.5t-62 -120.5t-23 -174q0 -93 20 -160t54 -109.5t79 -62.5t95 -20q49 0 92.5 18.5t78 57t57.5 98.5t31 143zM1178 138v-79q0 -26 -33.5 -47t-95.5 -21q-39 0 -75 10.5t-66.5 32.5
t-54 55.5t-37.5 80.5q-32 -49 -71.5 -84t-82.5 -57t-88.5 -32.5t-90.5 -10.5q-85 0 -158.5 34.5t-128 99.5t-85.5 158.5t-31 211.5q0 124 34.5 225t95.5 172t143 109.5t178 38.5q106 0 184.5 -43.5t127.5 -109.5l18 95q12 39 51 39h118l-54 -538q-2 -49 -6.5 -96t-4.5 -88
q0 -42 12 -71.5t32 -48t47.5 -27.5t59.5 -9h62z" />
    <glyph glyph-name="beta" unicode="&#x3b2;" horiz-adv-x="1120" 
d="M331 256q42 -60 93.5 -89t129.5 -29q73 0 128 23.5t92 64.5t55.5 95.5t18.5 117.5q0 76 -24.5 128t-66 83.5t-97 45.5t-117.5 14h-62v155h39q56 0 102 11.5t79 37.5t51 67t18 101q0 112 -56 168.5t-155 56.5q-59 0 -102 -21.5t-71 -69.5t-41.5 -123.5t-13.5 -183.5v-653z
M136 915q0 128 26 227.5t78.5 168t133 104.5t188.5 36q102 0 176 -29.5t122 -78.5t71.5 -112.5t23.5 -131.5q0 -112 -57 -191.5t-159 -114.5q73 -18 130 -52t96.5 -82.5t60 -109t20.5 -130.5q0 -87 -31.5 -166t-89.5 -138t-140 -94t-183 -35q-171 0 -271 110v-457h-195v1276
z" />
    <glyph glyph-name="beta.salt" horiz-adv-x="1138" 
d="M299 613q3 -125 22.5 -214.5t54.5 -147t85.5 -84.5t115.5 -27q64 0 118 25.5t93 71.5t61 110.5t22 142.5t-23.5 134t-68 85t-108.5 29t-144 -34zM533 857q76 31 127 66.5t81.5 73.5t43.5 77.5t13 78.5q0 69 -39 108t-117 39q-65 0 -122.5 -30t-103 -94.5t-75.5 -166
t-39 -243.5zM765 865q70 -3 125 -32t93 -79t58 -118t20 -148q0 -117 -38.5 -210t-105 -158t-156 -99.5t-191.5 -34.5q-118 0 -205 46t-144 131.5t-84.5 207.5t-27.5 274q0 198 41.5 349t115.5 253t175.5 154t221.5 52q88 0 149.5 -25.5t100 -66.5t56 -92.5t17.5 -103.5
q0 -88 -52 -161t-169 -139z" />
    <glyph glyph-name="gamma" unicode="&#x3b3;" horiz-adv-x="1095" 
d="M1069 1016q-28 -123 -71 -246t-97 -241t-117.5 -230t-131.5 -213v-426h-195v430q-22 106 -46 206t-51.5 187.5t-58 160t-65 124.5t-74 80.5t-83.5 28.5h-38v73q0 15 4 28.5t15 23.5t30.5 16t50.5 6q94 0 165.5 -52t125.5 -150.5t92.5 -241.5t65.5 -326q46 76 85 161
t70.5 174.5t56 181t42.5 180.5q6 38 23 51.5t37 13.5h165z" />
    <glyph glyph-name="delta" unicode="&#x3b4;" horiz-adv-x="1106" 
d="M555 137q62 0 113.5 21.5t88.5 62t57.5 98.5t20.5 131q0 79 -23 139.5t-61 108t-87.5 85t-103.5 69.5q-56 -21 -107 -52.5t-90 -78t-62.5 -109.5t-23.5 -145q0 -67 17 -127t51.5 -105t86.5 -71.5t123 -26.5zM897 1288q-3 -26 -15.5 -34.5t-37.5 -8.5q-14 0 -46 7.5
t-73.5 16t-87.5 16t-87 7.5q-84 0 -119 -25.5t-35 -61.5q0 -34 27 -63.5t72 -58.5t102 -60.5t116 -69t116 -84t102 -106.5t72 -135.5t27 -171.5q0 -104 -33 -190t-95 -148t-150 -96.5t-197 -34.5q-114 0 -203 36t-150.5 100t-93.5 150.5t-32 187.5q0 167 89 284.5t267 180.5
q-45 27 -85 55t-69.5 61t-47 72.5t-17.5 89.5q0 52 20 96t63 76.5t108.5 51t157.5 18.5q35 0 79.5 -2.5t91.5 -7.5t93.5 -12t85.5 -16z" />
    <glyph glyph-name="epsilon" unicode="&#x3b5;" horiz-adv-x="909" 
d="M860 145q-35 -43 -79 -73t-92.5 -49t-99 -27.5t-99.5 -8.5q-83 0 -157 21t-130 60.5t-88.5 96t-32.5 127.5q0 87 51 148t136 93q-45 18 -76 43.5t-51 55.5t-29 62.5t-9 63.5q0 54 25 103.5t74.5 87.5t124 60.5t173.5 22.5q114 0 196 -34t139 -88l-44 -75
q-11 -17 -20.5 -22.5t-23.5 -5.5t-32.5 11.5t-46 25.5t-68 25.5t-97.5 11.5q-53 0 -92.5 -11t-66 -30t-39.5 -44.5t-13 -54.5q0 -64 60 -104.5t169 -40.5h164v-130h-164q-123 0 -182.5 -43t-59.5 -114q0 -37 15 -68.5t43.5 -54.5t69.5 -36t93 -13q64 0 107 15.5t72 33.5
t48.5 33.5t38.5 15.5q24 0 37 -18z" />
    <glyph glyph-name="zeta" unicode="&#x3b6;" horiz-adv-x="790" 
d="M811 1354q2 -11 -0.5 -23t-14.5 -29t-34 -42t-59 -61l-94 -90.5t-98.5 -103t-93 -114.5t-78 -124.5t-53.5 -133.5t-20 -142q0 -65 17 -111.5t51 -79.5t83 -56.5t114 -43.5q93 -28 150.5 -59t89.5 -64.5t43 -70.5t11 -77q0 -67 -22.5 -130.5t-62.5 -127.5l-152 59
q19 32 37 74t18 84q0 19 -7 38t-29 38t-63 38t-109 39q-86 26 -153 60t-112.5 82.5t-69 113.5t-23.5 153q0 115 39 221.5t108.5 209t164.5 204.5t207 208q-63 -8 -131.5 -12.5t-140.5 -4.5h-113q-22 0 -37 6t-24.5 15t-14 20.5t-4.5 22.5v96h662z" />
    <glyph glyph-name="eta" unicode="&#x3b7;" horiz-adv-x="1172" 
d="M18 959q0 13 5.5 25t18 21.5t32 15t47.5 5.5q82 0 143 -38t87 -119q69 73 157 118t197 45q84 0 147.5 -28t106.5 -78.5t65 -121.5t22 -157v-988h-196v988q0 109 -50 169.5t-153 60.5q-75 0 -140 -35.5t-122 -96.5v-745h-195v734q0 75 -32 110.5t-96 35.5h-44v79z" />
    <glyph glyph-name="theta" unicode="&#x3b8;" horiz-adv-x="1197" 
d="M300 663q7 -271 83.5 -397t216.5 -126q138 0 214.5 126t83.5 397h-598zM897 799q-10 258 -86 379.5t-211 121.5q-136 0 -212.5 -121.5t-86.5 -379.5h596zM600 1453q112 0 202.5 -47.5t154 -140t98 -229.5t34.5 -316q0 -180 -34.5 -317.5t-98 -230t-154 -139.5t-202.5 -47
q-113 0 -204 47t-155 139.5t-98.5 230t-34.5 317.5q0 179 34.5 316t98.5 229.5t155 140t204 47.5z" />
    <glyph glyph-name="theta.salt" horiz-adv-x="1301" 
d="M490 1183q0 -88 104 -125.5t304 -41.5q-30 136 -94 213t-167 77q-72 0 -109.5 -34t-37.5 -89zM1266 1016v-79q0 -24 -15.5 -44t-48.5 -20h-99q6 -69 6 -148q0 -171 -30.5 -308.5t-93 -233.5t-156.5 -147.5t-220 -51.5q-102 0 -178 31.5t-126.5 89.5t-75 139t-24.5 179
v185q0 63 -21.5 92t-80.5 29h-62v79q0 26 34 46.5t98 20.5q49 0 90.5 -13.5t72 -44.5t48 -82t17.5 -127v-185q0 -63 13.5 -115.5t41 -90t69.5 -58t99 -20.5q67 0 122.5 31.5t95 101t61.5 181t22 272.5q0 79 -6 148q-138 1 -250.5 20.5t-191.5 58.5t-122 98t-43 139
q0 55 21 103t61 83t97.5 55t131.5 20q87 0 160.5 -26.5t132 -80t101 -135t65.5 -192.5h184z" />
    <glyph glyph-name="iota" unicode="&#x3b9;" horiz-adv-x="538" 
d="M129 1016h196v-732q0 -73 31.5 -111.5t101.5 -38.5h85v-60q0 -21 -13 -37t-35 -27t-51.5 -16.5t-61.5 -5.5q-62 0 -109.5 21t-79.5 58.5t-48 90t-16 115.5v743z" />
    <glyph glyph-name="lambda" unicode="&#x3bb;" horiz-adv-x="1083" 
d="M1086 136v-79q0 -41 -25 -54.5t-72 -13.5q-41 0 -80.5 8t-75 30t-65.5 60t-51 98l-170 439q-8 23 -13 42.5t-7 38.5q-5 -19 -11.5 -38.5t-14.5 -39.5l-236 -588q-7 -15 -21 -27t-39 -12h-166l394 926l-98 272q-11 30 -23.5 50.5t-30.5 32.5t-42.5 17t-59.5 5h-73v73
q0 15 5.5 28.5t19 23.5t36.5 16t59 6q43 0 84 -8t76.5 -28.5t64.5 -54.5t48 -86l386 -1030q20 -57 51.5 -82t88.5 -25h61z" />
    <glyph glyph-name="mu" unicode="&#x3bc;" horiz-adv-x="1199" 
d="M1194 136v-78q0 -26 -33.5 -47t-95.5 -21q-42 0 -80.5 12t-70.5 37.5t-55 64t-34 91.5q-59 -89 -133.5 -138t-168.5 -49q-140 0 -215 84q7 -42 9.5 -85t2.5 -79v-269h-97q-42 0 -64.5 21.5t-22.5 62.5v1273h196v-611q0 -108 50.5 -172t152.5 -64q88 0 153.5 48.5
t108.5 134.5v664h196v-734q0 -75 38 -110.5t101 -35.5h62z" />
    <glyph glyph-name="nu" unicode="&#x3bd;" horiz-adv-x="1032" 
d="M1004 1016q-31 -138 -76.5 -274t-103 -265t-126.5 -249.5t-147 -227.5h-121l-411 1016h160q23 0 38.5 -11t20.5 -28l242 -624q13 -38 22 -74t17 -72q51 78 91 169t71.5 188t55.5 197t44 196q5 33 22 46t37 13h164z" />
    <glyph glyph-name="xi" unicode="&#x3be;" horiz-adv-x="794" 
d="M776 1354q0 -35 -24 -55.5t-53 -20.5h-89q-65 0 -119 -19.5t-92 -53.5t-59 -80t-21 -100q0 -91 71.5 -140t206.5 -49h91v-155h-137q-72 0 -124.5 -17t-87 -48t-51 -74t-16.5 -95q0 -54 19 -93t57.5 -69.5t96.5 -56.5t136 -54q64 -23 106 -48t67 -53.5t35 -61.5t10 -72
q0 -73 -22.5 -138.5t-62.5 -129.5l-152 60q19 32 37.5 73.5t18.5 82.5q0 21 -6 39.5t-21.5 35t-43.5 31t-73 27.5q-78 22 -149.5 53.5t-126 79.5t-87.5 115t-33 160q0 47 12 96t39 95t70.5 84.5t107.5 64.5q-83 36 -126 97t-43 146q0 47 15.5 88t43 75.5t64.5 63t80 49.5
h-172q-44 0 -62 20.5t-18 55.5v73h687v-82z" />
    <glyph glyph-name="xi.salt" horiz-adv-x="798" 
d="M548 681q-72 0 -124.5 -17t-87 -48t-51 -74t-16.5 -95q0 -54 19 -93t57.5 -69.5t96.5 -56.5t136 -54q64 -23 106 -48t67 -53.5t35 -61.5t10 -72q0 -73 -22.5 -138.5t-62.5 -129.5l-152 60q19 32 37 73.5t18 82.5q0 21 -5.5 39.5t-21.5 35t-43.5 31t-72.5 27.5
q-78 22 -149.5 53.5t-126 79.5t-87.5 115t-33 160q0 48 12.5 99t41.5 98t76 86t116 64q-91 37 -138.5 108t-47.5 177q0 89 31.5 159t90 118t142.5 73.5t189 25.5h185v-81q0 -35 -24 -55.5t-53 -20.5h-103q-69 0 -121 -16.5t-87 -45.5t-52.5 -69.5t-17.5 -89.5
q0 -107 72 -164.5t206 -57.5h92v-155h-137z" />
    <glyph glyph-name="pi" unicode="&#x3c0;" horiz-adv-x="1239" 
d="M1177 915q0 -26 -16 -44t-47 -18h-142q-1 -45 -1.5 -85.5t-0.5 -80.5q0 -124 3.5 -212.5t11.5 -149.5t19 -98t27 -56.5t35.5 -26t43.5 -6.5h40v-78q0 -33 -36 -50t-90 -17q-123 0 -182 84t-59 267q0 45 4 96.5l9 113l10.5 135.5t8.5 164h-356q-4 -172 -15.5 -303
t-30.5 -226.5t-44.5 -159.5t-57 -102t-68 -54t-77.5 -16q-13 0 -27.5 2t-26.5 6.5t-19.5 12t-7.5 17.5v134h20q30 0 60.5 37t56 118.5t43.5 213t24 320.5h-216v83q0 12 5 24.5t14.5 23t23.5 17.5t32 7h1029v-93z" />
    <glyph glyph-name="rho" unicode="&#x3c1;" horiz-adv-x="1128" 
d="M319 268q50 -69 114.5 -100t132.5 -31q134 0 207.5 96.5t73.5 281.5q0 97 -19.5 165.5t-55 112t-84.5 64t-108 20.5q-54 0 -102 -19.5t-83 -57.5t-55.5 -93.5t-20.5 -126.5v-312zM123 580q0 103 31 187t90 143t144 91t192 32q97 0 182 -34.5t149 -100.5t101 -162.5
t37 -220.5q0 -113 -30 -209.5t-87 -167.5t-138 -111.5t-183 -40.5q-88 0 -161.5 31t-130.5 88v-446h-196v921z" />
    <glyph glyph-name="sigma" unicode="&#x3c3;" horiz-adv-x="1204" 
d="M641 861q-96 0 -164.5 -24t-112 -70.5t-63.5 -115t-20 -158.5q0 -175 73.5 -265t215.5 -90q145 0 215.5 93.5t70.5 273.5q0 63 -10 121t-30 105.5t-51.5 81t-73.5 48.5h-50zM1200 1012v-93q0 -18 -17 -38t-47 -20h-234q73 -56 113.5 -147t40.5 -217q0 -112 -33.5 -206
t-96.5 -161.5t-153 -105.5t-202 -38q-110 0 -201 35t-155.5 100.5t-100 160.5t-35.5 215t37.5 215.5t109 162t176.5 102t240 35.5h558z" />
    <glyph glyph-name="sigma1" unicode="&#x3c2;" horiz-adv-x="932" 
d="M848 826q-9 -11 -17.5 -17.5t-24.5 -6.5t-34 12.5t-44 27t-63.5 27t-92.5 12.5q-72 0 -127 -25t-92 -69t-56 -103t-19 -127q0 -95 24.5 -156t71.5 -101.5t115.5 -68.5t157.5 -57q64 -23 105.5 -48t66.5 -53.5t35 -61.5t10 -72q0 -73 -22.5 -138.5t-62.5 -129.5l-152 60
q19 32 37.5 73.5t18.5 82.5q0 21 -6 39.5t-21.5 35t-43.5 31t-73 27.5q-95 28 -179 63.5t-146.5 94t-99 146.5t-36.5 221q0 100 31.5 188.5t93 155t151 105t206.5 38.5q109 0 192 -35t147 -99z" />
    <glyph glyph-name="tau" unicode="&#x3c4;" horiz-adv-x="939" 
d="M908 930q0 -34 -18 -52.5t-51 -18.5h-310v-571q0 -74 31.5 -112t101.5 -38h85v-60q0 -21 -13 -37t-35 -27t-51.5 -16.5t-61.5 -5.5q-62 0 -109.5 21t-79.5 58.5t-48 90t-16 115.5v582h-309v86q0 25 16.5 44t49.5 19h818v-78z" />
    <glyph glyph-name="upsilon" unicode="&#x3c5;" horiz-adv-x="1109" 
d="M948 1016l20 -121t17.5 -115t12 -115t4.5 -122q0 -146 -39 -252t-103.5 -174t-148.5 -100.5t-175 -32.5q-97 0 -173.5 26.5t-129 76.5t-80 121.5t-27.5 160.5v647h195v-647q0 -54 16.5 -96.5t46.5 -72.5t71.5 -45.5t92.5 -15.5q48 0 95 20t84.5 66.5t61 124t23.5 193.5
q0 51 -5.5 102t-13.5 102t-17 101.5t-17 101.5q-2 18 3 31t13 20.5t18.5 11t20.5 3.5h134z" />
    <glyph glyph-name="phi" unicode="&#x3c6;" horiz-adv-x="1492" 
d="M833 132q94 1 166 30t121 81.5t74 127t25 167.5q0 78 -21.5 141.5t-56.5 109.5t-80 71t-93 25q-63 0 -99 -40t-36 -134v-579zM650 711q0 84 21.5 144.5t62.5 100t100 58t134 18.5q99 0 181.5 -38t141 -104.5t91 -157t32.5 -194.5q0 -125 -41.5 -226t-117 -173t-183 -112
t-239.5 -41v-326h-183v326q-131 1 -237 40.5t-180.5 109t-115 165t-40.5 208.5q0 91 25.5 170.5t73 145.5t114 117t147.5 84l50 -79q7 -12 8 -25t-2.5 -24.5t-10.5 -20.5t-15 -12q-94 -50 -144 -143t-50 -214q0 -81 24.5 -149.5t72 -118t118 -78.5t162.5 -30v579z" />
    <glyph glyph-name="phi.salt" horiz-adv-x="1493" 
d="M838 132q92 1 163 27t119.5 74.5t73.5 118t25 156.5t-25 156.5t-73.5 118t-119.5 75t-163 27.5v-753zM655 885q-93 -1 -164 -27.5t-119.5 -75t-73.5 -118t-25 -156.5t25 -156.5t73.5 -118t119.5 -74.5t164 -27v753zM838 1032q132 -1 238.5 -38t182 -105t116 -164.5
t40.5 -215.5q0 -120 -40.5 -216t-116 -164t-182 -105t-238.5 -38v-326h-183v326q-132 1 -238.5 38t-182 105t-116 164t-40.5 216q0 119 40.5 215.5t116 164.5t182 105t238.5 38v404h183v-404z" />
    <glyph glyph-name="chi" unicode="&#x3c7;" horiz-adv-x="965" 
d="M983 -210v-79q0 -41 -16 -54t-63 -13q-42 0 -80.5 7.5t-73 29t-64.5 60t-56 99.5l-169 384q-5 -31 -12.5 -60t-15.5 -52l-203 -411q-5 -16 -19 -27.5t-39 -11.5h-139l341 713l-178 401q-14 30 -28 50t-32.5 32.5t-43 18t-58.5 5.5h-36v72q0 15 1 28.5t8 23.5t23.5 16
t48.5 6q104 0 172 -40t110 -137l164 -371q4 30 11 58.5t16 50.5l186 388q6 16 19.5 28t38.5 12h139l-325 -685l193 -435q12 -27 25.5 -47.5t30 -33.5t38 -19.5t50.5 -6.5h36z" />
    <glyph glyph-name="psi" unicode="&#x3c8;" horiz-adv-x="1541" 
d="M1379 1016l22.5 -121t17.5 -115t11 -115t4 -122q0 -149 -45.5 -251t-123 -166.5t-180 -96.5t-216.5 -41v-328h-195v327q-277 18 -415 147t-138 348v534h135q12 0 23.5 -7.5t19.5 -18.5t13 -24.5t5 -25.5v-458q0 -75 24.5 -133.5t70.5 -100.5t112 -68t150 -36v1292h195
v-1293q79 7 146.5 31t117 70.5t77.5 119.5t28 179q0 73 -6.5 128.5t-15.5 102t-18 88.5t-14 88q0 37 17.5 51.5t37.5 14.5h140z" />
    <glyph glyph-name="omega" unicode="&#x3c9;" horiz-adv-x="1542" 
d="M1322 1016q60 -116 98 -244.5t38 -263.5q0 -119 -29 -216t-81 -165.5t-124 -105.5t-158 -37q-55 0 -100 13t-82 36.5t-65 56t-49 71.5q-21 -39 -49.5 -71.5t-65 -56t-81.5 -36.5t-98 -13q-86 0 -158 37t-124 105.5t-81 165.5t-29 216q0 135 38 263.5t98 244.5h139
q10 0 22.5 -4.5t21 -15t10.5 -27t-8 -40.5q-16 -27 -37.5 -74t-41 -104.5t-33.5 -120.5t-14 -122q0 -111 21.5 -182.5t54 -113t71.5 -57.5t74 -16q44 0 76.5 20.5t54 57.5t32 88.5t10.5 113.5v262h196v-262q0 -62 10.5 -113.5t32 -88.5t54 -57.5t77.5 -20.5q35 0 73.5 16
t71 57.5t54 113t21.5 182.5q0 59 -14 122t-33.5 120.5t-41 104.5t-37.5 74q-10 24 -7.5 40.5t11 27t20.5 15t22 4.5h139z" />
    <glyph glyph-name="tonos" unicode="&#x384;" 
d="M340 1147l66 351h121q29 0 39.5 -18.5t-0.5 -49.5l-110 -283h-116z" />
    <glyph glyph-name="dieresistonos" unicode="&#x385;" 
d="M338 1153l65 351h121q29 0 39.5 -18.5t0.5 -49.5l-111 -283h-115zM798 1286q0 -20 -8 -38t-21.5 -31.5t-32 -21t-38.5 -7.5q-42 0 -70.5 28.5t-28.5 69.5q0 21 7.5 39t21 32t31.5 22t39 8q20 0 38.5 -8t32 -22t21.5 -32t8 -39zM285 1286q0 -20 -8 -38t-22 -31.5
t-32.5 -21t-38.5 -7.5t-37.5 7.5t-31 21t-21.5 31.5t-8 38q0 21 8 39t21.5 32t31 22t37.5 8t38.5 -8t32.5 -22t22 -32t8 -39z" />
    <glyph glyph-name="uni0374" unicode="&#x374;" horiz-adv-x="431" 
d="M319 1514q30 -151 -7 -293t-149 -263l-61 39q-17 11 -18.5 27t6.5 28q27 37 47.5 72.5t30 72t5 75t-28.5 81.5v108q0 23 12.5 38t40.5 15h122z" />
    <glyph glyph-name="uni0375" unicode="&#x375;" horiz-adv-x="431" 
d="M319 341q30 -151 -7 -293t-149 -263l-61 39q-17 11 -18.5 27t6.5 28q27 37 47.5 72.5t30 72t5 75t-28.5 81.5v108q0 23 12.5 38t40.5 15h122z" />
    <glyph glyph-name="afii10018" unicode="&#x411;" horiz-adv-x="1245" 
d="M657 169q81 0 138 18t93 50.5t52.5 77.5t16.5 99q0 57 -16.5 102t-52 76t-92.5 47.5t-138 16.5h-268v-487h267zM658 825q133 0 229 -29.5t158.5 -81.5t92 -123.5t29.5 -155.5q0 -99 -34 -179.5t-99.5 -137.5t-160.5 -87.5t-216 -30.5h-480v1436h940v-167h-727v-444h268z
" />
    <glyph glyph-name="afii10020" unicode="&#x413;" horiz-adv-x="1077" 
d="M1047 1269h-656v-1269h-214v1436h870v-167z" />
    <glyph glyph-name="afii10050" unicode="&#x490;" horiz-adv-x="1077" 
d="M1047 1269h-656v-1269h-214v1436h706v323h164v-490z" />
    <glyph glyph-name="afii10021" unicode="&#x414;" horiz-adv-x="1583" 
d="M1090 167v1102h-454q-12 -236 -33.5 -415.5t-51 -312.5t-65.5 -224t-77 -150h681zM1536 167v-452q0 -28 -19 -45t-49 -17h-127v347h-1132v-285q0 -28 -19 -45t-49 -17h-127v514h150q30 15 60 48.5t58 95t52.5 155.5t44.5 230.5t34.5 319t22.5 420.5h868v-1269h232z" />
    <glyph glyph-name="afii10024" unicode="&#x416;" horiz-adv-x="2092" 
d="M2078 0h-141q-47 0 -80.5 20.5t-53.5 55.5l-346 496q-28 42 -62 60.5t-86 18.5h-163v-651h-201v651h-162q-52 0 -86.5 -18.5t-61.5 -60.5l-346 -496q-20 -35 -53.5 -55.5t-79.5 -20.5h-142l413 618q32 55 70.5 87.5t89.5 48.5q-43 15 -73 43t-59 70l-406 569h166
q33 0 61.5 -16.5t45.5 -45.5l343 -487q31 -44 64.5 -58t77.5 -14h138v621h201v-621h139q44 0 77.5 14t64.5 58l343 487q17 29 45.5 45.5t60.5 16.5h167l-406 -569q-29 -42 -59 -70t-73 -43q50 -17 89 -49t71 -87z" />
    <glyph glyph-name="afii10025" unicode="&#x417;" horiz-adv-x="1154" 
d="M94 1302q82 72 191.5 110.5t246.5 38.5q112 0 202 -27.5t153 -76.5t97 -117t34 -149q0 -106 -51.5 -187.5t-147.5 -129.5q54 -24 98 -57t75.5 -74.5t49 -90t17.5 -102.5q0 -95 -35 -177.5t-102.5 -144t-165.5 -97t-224 -35.5q-154 0 -280 51t-214 137l61 102q8 12 21 20
t28 8q22 0 52 -22t75 -48.5t108.5 -48.5t154.5 -22q153 0 237 69.5t84 197.5q0 54 -21.5 99t-61.5 77t-97 49.5t-129 16.5h-198v175h187q62 0 113.5 14.5t88.5 42t57.5 68t20.5 92.5q0 47 -19.5 86t-56 66.5t-90 43t-121.5 15.5q-79 0 -134.5 -16.5t-94.5 -37t-64.5 -37
t-43.5 -16.5q-17 0 -28 8t-21 25z" />
    <glyph glyph-name="afii10026" unicode="&#x418;" horiz-adv-x="1531" 
d="M1353 1436v-1436h-213v988q0 45 2 94.5t10 103.5q-19 -48 -39 -89t-40 -73l-642 -957q-15 -25 -39.5 -46t-55.5 -21h-159v1436h214v-988q0 -45 -2.5 -94.5t-9.5 -104.5q18 48 38 89.5t40 73.5l643 957q15 25 39 46t55 21h159z" />
    <glyph glyph-name="afii10028" unicode="&#x41a;" horiz-adv-x="1354" 
d="M1342 0h-191q-32 0 -53.5 17t-40.5 49l-361 514q-13 20 -26.5 33.5t-29.5 22t-35.5 12t-45.5 3.5h-169v-651h-213v1436h213v-621h145q44 0 75.5 13.5t60.5 54.5l361 494q16 26 38.5 42.5t54.5 16.5h180l-423 -586q-25 -36 -57 -59.5t-70 -37.5q54 -14 91.5 -46.5
t72.5 -89.5z" />
    <glyph glyph-name="afii10029" unicode="&#x41b;" horiz-adv-x="1460" 
d="M1283 0h-214v1269h-453q-14 -275 -38.5 -477t-58.5 -344.5t-77 -232.5t-94.5 -141t-110.5 -69.5t-125 -18.5q-118 0 -118 42v135h71q38 0 76.5 14.5t74 60t68 131t58.5 227t44.5 347.5t28.5 493h868v-1436z" />
    <glyph glyph-name="afii10058" unicode="&#x409;" horiz-adv-x="2114" 
d="M1550 169q81 0 138 18t93 50.5t52.5 77.5t16.5 99q0 57 -16.5 102t-52 76t-92.5 47.5t-138 16.5h-268v-487h267zM1551 825q133 0 229 -29.5t158.5 -81.5t92 -123.5t29.5 -155.5q0 -99 -34 -179.5t-99.5 -137.5t-160.5 -87.5t-216 -30.5h-481v1269h-453
q-14 -275 -38.5 -477t-58.5 -344.5t-77 -232.5t-94.5 -141t-110.5 -69.5t-125 -18.5q-118 0 -118 42v135h71q38 0 76.5 14.5t74 60t68 131t58.5 227t44.5 347.5t28.5 493h868v-611h268z" />
    <glyph glyph-name="afii10059" unicode="&#x40a;" horiz-adv-x="2185" 
d="M1621 169q81 0 138 18t93 50.5t52.5 77.5t16.5 99q0 57 -16.5 102t-52.5 76t-93 47.5t-138 16.5h-268v-487h268zM1621 825q133 0 229.5 -29.5t159 -81.5t92 -123.5t29.5 -155.5q0 -99 -34 -179.5t-99.5 -137.5t-160.5 -87.5t-216 -30.5h-481v647h-749v-647h-214v1436h214
v-634h749v634h213v-611h268z" />
    <glyph glyph-name="afii10147" unicode="&#x472;" horiz-adv-x="1605" 
d="M309 650q9 -113 47.5 -202.5t102.5 -151.5t151 -94.5t192 -32.5t192 32.5t150.5 94.5t102 151.5t47.5 202.5h-985zM1292 811q-12 107 -51.5 192t-102.5 144t-148 90t-188 31q-102 0 -187 -31t-148.5 -90t-103.5 -144t-52 -192h981zM802 1452q160 0 291 -54.5t225 -152
t145.5 -232.5t51.5 -295q0 -161 -51.5 -295.5t-145.5 -232t-225 -151.5t-291 -54q-159 0 -290.5 54t-225 151.5t-145.5 232t-52 295.5q0 160 52 295t145.5 232.5t225 152t290.5 54.5z" />
    <glyph glyph-name="afii10033" unicode="&#x41f;" horiz-adv-x="1476" 
d="M1298 0h-213v1269h-694v-1269h-214v1436h1121v-1436z" />
    <glyph glyph-name="afii10037" unicode="&#x423;" horiz-adv-x="1260" 
d="M1266 1436l-583 -1246q-28 -60 -60.5 -99.5t-70 -62.5t-80.5 -32.5t-92 -9.5q-118 0 -118 42v135h72q24 0 48.5 5t47.5 18.5t43.5 36.5t38.5 59l67 138l-577 1016h199q28 0 44.5 -13.5t28.5 -35.5l335 -618q40 -75 63 -153q11 39 26 77.5t33 76.5l287 617q8 18 26.5 33.5
t45.5 15.5h176z" />
    <glyph glyph-name="afii10148" unicode="&#x474;" horiz-adv-x="1403" 
d="M1012 1244q32 102 100 150.5t171 48.5q57 0 78.5 -9.5t21.5 -31.5v-133h-54q-45 0 -78 -26t-52 -80l-425 -1163h-191l-584 1436h170q28 0 45.5 -14t26.5 -36l388 -976q14 -36 27.5 -79t24.5 -90q10 47 22 90t26 79z" />
    <glyph glyph-name="afii10038" unicode="&#x424;" horiz-adv-x="1576" 
d="M889 340q91 1 165 34t126.5 89t81.5 130.5t29 159.5q0 84 -29 158.5t-81.5 130.5t-126.5 89t-165 35v-826zM687 1166q-91 -2 -165 -35t-126.5 -89t-81 -130.5t-28.5 -158.5q0 -85 28.5 -159.5t81 -130.5t126.5 -89t165 -34v826zM889 1332q137 -3 250 -50t194 -125
t125.5 -182t44.5 -222t-44.5 -222t-125.5 -182.5t-194 -125.5t-250 -50v-173h-202v173q-137 3 -250 50t-194 125.5t-125.5 182.5t-44.5 222q0 117 45 221t126.5 182.5t194.5 125.5t248 50v168h202v-168z" />
    <glyph glyph-name="afii10040" unicode="&#x426;" horiz-adv-x="1567" 
d="M1514 167v-452q0 -28 -19 -45t-49 -17h-126v347h-1143v1436h214v-1269h694v1269h213v-1269h216z" />
    <glyph glyph-name="afii10145" unicode="&#x40f;" horiz-adv-x="1476" 
d="M1298 1436v-1436h-463v-285q0 -28 -19 -45t-49 -17h-127v347h-463v1436h214v-1269h694v1269h213z" />
    <glyph glyph-name="afii10041" unicode="&#x427;" horiz-adv-x="1330" 
d="M1152 1436v-1436h-213v610q-115 -30 -223 -47t-202.5 -15t-173 25.5t-134.5 73t-87 128t-31 191.5v470h214v-471q0 -95 37 -154t115 -83.5t198.5 -15t286.5 51.5v672h213z" />
    <glyph glyph-name="afii10042" unicode="&#x428;" horiz-adv-x="2157" 
d="M1980 1436v-1436h-1803v1436h214v-1269h579v1269h213v-1269h583v1269h214z" />
    <glyph glyph-name="afii10043" unicode="&#x429;" horiz-adv-x="2248" 
d="M2196 167v-452q0 -28 -19 -45t-49 -17h-127v347h-1824v1436h214v-1269h579v1269h213v-1269h583v1269h214v-1269h216z" />
    <glyph glyph-name="afii10044" unicode="&#x42a;" horiz-adv-x="1484" 
d="M920 169q81 0 138 18t93 50.5t52.5 77.5t16.5 99q0 57 -16.5 102t-52 76t-92.5 47.5t-138 16.5h-268v-487h267zM921 825q133 0 229 -29.5t158.5 -81.5t92 -123.5t29.5 -155.5q0 -99 -34 -179.5t-99.5 -137.5t-160.5 -87.5t-216 -30.5h-480v1263h-411v173h624v-611h268z
" />
    <glyph glyph-name="afii10045" unicode="&#x42b;" horiz-adv-x="1808" 
d="M657 169q81 0 138 18t93 50.5t52.5 77.5t16.5 99q0 57 -16.5 102t-52 76t-92.5 47.5t-138 16.5h-268v-487h267zM658 825q133 0 229 -29.5t158.5 -81.5t92 -123.5t29.5 -155.5q0 -99 -34 -179.5t-99.5 -137.5t-160.5 -87.5t-216 -30.5h-480v1436h213v-611h268zM1631 0
h-214v1436h214v-1436z" />
    <glyph glyph-name="afii10046" unicode="&#x42c;" horiz-adv-x="1221" 
d="M657 169q81 0 138 18t93 50.5t52.5 77.5t16.5 99q0 57 -16.5 102t-52 76t-92.5 47.5t-138 16.5h-268v-487h267zM658 825q133 0 229 -29.5t158.5 -81.5t92 -123.5t29.5 -155.5q0 -99 -34 -179.5t-99.5 -137.5t-160.5 -87.5t-216 -30.5h-480v1436h213v-611h268z" />
    <glyph glyph-name="afii10047" unicode="&#x42d;" horiz-adv-x="1347" 
d="M74 1269q87 83 206 133t273 50q156 0 285.5 -54t222.5 -151t144.5 -232t51.5 -297t-48.5 -297t-138.5 -232t-216.5 -151t-282.5 -54q-178 0 -304.5 57t-214.5 161l84 92q13 14 31 14q10 0 19 -4.5t17 -11.5q36 -33 73 -56.5t79 -38.5t91.5 -22.5t111.5 -7.5
q94 0 177 32.5t147 94.5t104.5 151.5t50.5 204.5h-710v161h708q-12 108 -52.5 193t-103.5 143.5t-145.5 89.5t-179.5 31q-91 0 -152 -19t-102.5 -42.5t-67 -42.5t-44.5 -19q-17 0 -27 7t-17 18z" />
    <glyph glyph-name="afii10053" unicode="&#x404;" horiz-adv-x="1348" 
d="M1180 308q18 0 31 -14l84 -92q-88 -104 -214.5 -161t-304.5 -57q-156 0 -282.5 54t-216 151t-138.5 232t-49 297t51.5 297t144.5 232t222.5 151t286.5 54q153 0 272 -50t207 -133l-70 -99q-7 -11 -17.5 -18t-27.5 -7q-19 0 -44.5 19t-67 42.5t-102.5 42.5t-152 19
q-97 0 -179.5 -31t-145 -89.5t-103 -143.5t-52.5 -193h706v-161h-708q10 -115 50.5 -205t104 -151.5t146.5 -94t178 -32.5q62 0 111.5 7.5t91 22.5t78.5 38.5t73 56.5q8 7 17 11.5t19 4.5z" />
    <glyph glyph-name="afii10048" unicode="&#x42e;" horiz-adv-x="2099" 
d="M1346 164q102 0 184.5 38.5t140 110t88.5 174t31 231.5q0 128 -31 231t-88.5 175t-140 111t-184.5 39t-184.5 -39t-140 -111t-88.5 -175t-31 -231q0 -129 31 -231.5t88.5 -174t140 -110t184.5 -38.5zM688 801q12 144 63.5 263.5t137 206t201 134t256.5 47.5
q150 0 272.5 -54.5t208.5 -152t133 -232.5t47 -295q0 -161 -47 -295.5t-133 -231.5t-208.5 -151t-272.5 -54q-140 0 -256 47t-201.5 132.5t-137 205t-63.5 263.5h-297v-634h-214v1436h214v-635h297z" />
    <glyph glyph-name="afii10049" unicode="&#x42f;" horiz-adv-x="1337" 
d="M947 780v488h-273q-81 0 -138 -17.5t-93 -49.5t-52.5 -76.5t-16.5 -98.5q0 -57 16.5 -103t52 -77.5t92.5 -48.5t138 -17h274zM1160 0h-213v612h-183q-26 0 -49 -4.5t-45 -16t-43 -32t-43 -52.5l-297 -431q-20 -35 -53.5 -55.5t-79.5 -20.5h-160l361 519q59 90 143 128
q-84 18 -147 52.5t-104.5 83t-62 109.5t-20.5 132q0 92 34 168t99.5 130t160 84t216.5 30h486v-1436z" />
    <glyph glyph-name="afii10051" unicode="&#x402;" horiz-adv-x="1485" 
d="M935 825q133 0 229 -29.5t158.5 -81.5t92 -123.5t29.5 -155.5q0 -99 -34 -179.5t-99.5 -137.5t-160.5 -87.5t-216 -30.5h-94v169h94q81 0 138 18t93 50.5t52.5 77.5t16.5 99q0 57 -16.5 102t-52 76t-92.5 47.5t-138 16.5h-300v-656h-213v1264h-395v172h1053v-172h-445
v-439h300z" />
    <glyph glyph-name="afii10060" unicode="&#x40b;" horiz-adv-x="1499" 
d="M635 818q113 29 215.5 45.5t189 14t156.5 -26t119 -73.5t75.5 -128.5t26.5 -190.5v-460h-213v461q0 94 -29 153.5t-96 84t-176 16t-268 -50.5v-663h-213v1264h-395v172h1053v-172h-445v-446z" />
    <glyph glyph-name="afii10146" unicode="&#x462;" horiz-adv-x="1455" 
d="M890 169q81 0 138 18t93 50.5t52.5 77.5t16.5 99q0 57 -16.5 102t-52 76t-92.5 47.5t-138 16.5h-268v-487h267zM891 825q133 0 229 -29.5t158.5 -81.5t92 -123.5t29.5 -155.5q0 -99 -34 -179.5t-99.5 -137.5t-160.5 -87.5t-216 -30.5h-480v1061h-358v160h358v215h213
v-215h439v-160h-439v-236h268z" />
    <glyph glyph-name="afii10066" unicode="&#x431;" horiz-adv-x="1173" 
d="M600 131q145 0 217.5 91.5t72.5 259.5q0 167 -70.5 259.5t-211.5 92.5q-69 0 -123.5 -21.5t-93 -63.5t-58.5 -103.5t-20 -141.5q0 -177 72 -275t215 -98zM669 1240q-99 -8 -170.5 -42.5t-118 -93.5t-70.5 -140.5t-28 -183.5q25 45 62.5 82t85.5 63.5t105 40.5t120 14
q102 0 183 -36t137.5 -101t86.5 -156.5t30 -203.5q0 -114 -35 -205.5t-99.5 -156.5t-155.5 -100t-202 -35q-105 0 -194.5 34.5t-155.5 113.5t-103.5 207t-37.5 315q0 159 29 293t93.5 234t168.5 161t253 73l362 30l11 -102q4 -33 -9.5 -56t-46.5 -25z" />
    <glyph glyph-name="afii10066.salt" horiz-adv-x="1107" 
d="M560 137q60 0 111 21t87.5 62.5t57.5 103.5t21 144q0 76 -25 133t-67 100.5t-96 76t-112 61.5q-52 -21 -99 -52.5t-82 -75.5t-56 -103t-21 -135q0 -68 16.5 -129t50.5 -107t87 -73t127 -27zM483 1250q-39 0 -65.5 -7t-42 -18.5t-22.5 -27t-7 -33.5q0 -35 29.5 -63
t77.5 -55t110 -55t126 -61.5t126 -75.5t110 -97.5t77.5 -126.5t29.5 -162q0 -113 -35.5 -202t-100 -151t-153.5 -95t-197 -33q-114 0 -201.5 36t-147 99.5t-90 151t-30.5 190.5q0 163 85 271t239 170q-47 24 -89 50.5t-73.5 59.5t-49.5 73.5t-18 93.5q0 49 20.5 95t62.5 81
t105.5 56.5t149.5 21.5h444v-127q0 -30 -16.5 -44.5t-45.5 -14.5h-408z" />
    <glyph glyph-name="afii10067" unicode="&#x432;" horiz-adv-x="996" 
d="M533 137q94 0 149 44.5t55 120.5q0 33 -10 61.5t-34 49.5t-63 32.5t-96 11.5h-211v-320h210zM323 886v-305h187q42 0 77.5 12t61 33.5t40 52t14.5 66.5q0 27 -9.5 52t-32 45t-59.5 32t-92 12h-187zM516 1016q94 0 162 -18.5t112 -51.5t64.5 -77t20.5 -95q0 -33 -9 -69
t-31 -68.5t-59.5 -59.5t-95.5 -42q112 -20 174.5 -80t62.5 -159q0 -75 -30.5 -130.5t-82.5 -92.5t-122 -55t-148 -18h-397v1016h379z" />
    <glyph glyph-name="afii10068" unicode="&#x433;" horiz-adv-x="830" 
d="M803 868h-471v-868h-195v1016h666v-148z" />
    <glyph glyph-name="afii10098" unicode="&#x491;" horiz-adv-x="830" 
d="M803 1266v-398h-471v-868h-195v1016h489v250h177z" />
    <glyph glyph-name="afii10069" unicode="&#x434;" horiz-adv-x="1244" 
d="M831 142v721h-304q-10 -148 -27 -264t-39.5 -203.5t-49.5 -150t-57 -103.5h477zM1206 148v-435q0 -28 -15.5 -44t-40.5 -16h-121v347h-830v-291q0 -22 -13 -39t-41 -17h-124v489h33q35 0 69 11t65.5 44t59.5 93t51 157t40 236.5t27 332.5h654v-868h186z" />
    <glyph glyph-name="afii10072" unicode="&#x436;" horiz-adv-x="1590" 
d="M1568 0h-135q-53 0 -80.5 16.5t-43.5 51.5l-186 307q-23 38 -57.5 57t-79.5 19h-96v-452h-190v452h-96q-45 0 -79.5 -19t-57.5 -57l-185 -307q-17 -35 -44.5 -51.5t-79.5 -16.5h-135l259 420q26 44 58.5 72t80.5 42q-37 13 -63.5 36.5t-49.5 61.5l-258 384h154
q28 0 51 -14.5t36 -38.5l205 -314q20 -33 50 -50t72 -17h82v435h190v-435h80q83 0 124 67l205 314q14 24 37 38.5t51 14.5h153l-258 -384q-24 -38 -50 -62t-63 -37q48 -14 80.5 -41.5t58.5 -71.5z" />
    <glyph glyph-name="afii10073" unicode="&#x437;" horiz-adv-x="898" 
d="M73 910q57 54 140 88t199 34q93 0 164 -22.5t119.5 -60t73 -85.5t24.5 -100q0 -30 -9.5 -62.5t-30.5 -62.5t-55.5 -55.5t-85.5 -42.5q94 -29 149 -92t55 -157q0 -71 -32.5 -128t-87.5 -96.5t-127 -60.5t-150 -21q-48 0 -98.5 9t-99.5 28t-93 49t-79 73l56 72q13 18 37 18
q19 0 39.5 -15.5t50 -33.5t71 -33.5t103.5 -15.5q53 0 94.5 13t70 36t43.5 54t15 68q0 72 -59 115t-182 43h-115v130h115q108 0 168 40.5t60 104.5q0 28 -13 53.5t-39.5 45t-66 30.5t-91.5 11q-58 0 -98 -11.5t-68 -25.5t-46.5 -25.5t-31.5 -11.5q-14 0 -23.5 5.5
t-20.5 22.5z" />
    <glyph glyph-name="afii10074" unicode="&#x438;" horiz-adv-x="1155" 
d="M1019 1016v-1016h-196v664q0 20 2 44.5t6 49.5l-19.5 -39.5t-19.5 -32.5l-467 -637q-11 -18 -29 -34t-41 -16h-118v1017h195v-665q0 -20 -2 -44.5t-6 -48.5q20 44 39 71l467 638q11 17 29.5 33t41.5 16h118z" />
    <glyph glyph-name="afii10076" unicode="&#x43a;" horiz-adv-x="1048" 
d="M751 963q15 23 40 38t53 15h153l-257 -384q-24 -38 -50 -62t-64 -37q48 -14 81 -41.5t59 -71.5l259 -420h-135q-53 0 -81.5 17.5t-48.5 50.5l-186 307q-23 38 -57.5 57t-79.5 19h-105v-452h-195v1017h195v-434h92q42 0 71.5 17t50.5 50z" />
    <glyph glyph-name="afii10077" unicode="&#x43b;" horiz-adv-x="1177" 
d="M1040 0h-195v863h-303q-12 -192 -36 -331.5t-58 -237t-75.5 -158t-88 -94t-95.5 -45t-98 -11.5q-91 0 -91 30v123h54q34 0 68.5 11.5t68 45t63.5 93.5t55 157.5t43 237.5t28 332h660v-1016z" />
    <glyph glyph-name="afii10106" unicode="&#x459;" horiz-adv-x="1678" 
d="M1250 143q101 0 150.5 48.5t49.5 123.5q0 34 -11 64.5t-35 53t-62.5 36t-94.5 13.5h-207v-339h210zM1247 624q105 0 177.5 -25.5t116.5 -68t63.5 -98t19.5 -115.5q0 -69 -24.5 -127.5t-72 -100.5t-117.5 -65.5t-160 -23.5h-405v863h-303q-12 -192 -36 -331.5t-58 -237
t-75.5 -158t-88 -94t-95.5 -45t-98 -11.5q-91 0 -91 30v123h54q34 0 68.5 11.5t68 45t63.5 93.5t55 157.5t43 237.5t28 332h660v-392h207z" />
    <glyph glyph-name="afii10078" unicode="&#x43c;" horiz-adv-x="1417" 
d="M1280 1019v-1019h-176v646q0 30 3.5 68t10.5 70l-340 -602q-9 -17 -23 -26.5t-33 -9.5h-22q-18 0 -32.5 9.5t-23.5 26.5l-345 604q6 -32 10 -70.5t4 -69.5v-646h-176v1019h158q20 0 40 -9t34 -35l297 -502q13 -24 24 -51l21 -54l20.5 54t23.5 51l293 502q14 27 34 35.5
t40 8.5h158z" />
    <glyph glyph-name="afii10079" unicode="&#x43d;" horiz-adv-x="1129" 
d="M993 1016v-1016h-196v468h-465v-468h-195v1016h195v-400h465v400h196z" />
    <glyph glyph-name="afii10107" unicode="&#x45a;" horiz-adv-x="1631" 
d="M1202 143q101 0 151 48.5t50 123.5q0 34 -11 64.5t-35 53t-63 36t-94 13.5h-207v-339h209zM1199 624q106 0 178 -25.5t116.5 -68t64 -98t19.5 -115.5q0 -69 -24.5 -127.5t-72.5 -100.5t-117.5 -65.5t-159.5 -23.5h-406v468h-465v-468h-195v1016h195v-400h465v400h196
v-392h206z" />
    <glyph glyph-name="afii10195" unicode="&#x473;" horiz-adv-x="1138" 
d="M271 449q13 -154 89 -235.5t210 -81.5q133 0 208 81.5t88 235.5h-595zM865 579q-15 149 -90 227.5t-205 78.5q-132 0 -207.5 -78.5t-90.5 -227.5h593zM570 1032q112 0 202.5 -36.5t154 -105t97.5 -165t34 -216.5t-34 -217t-97.5 -165t-154 -104.5t-202.5 -36.5
q-113 0 -203.5 36.5t-154.5 104.5t-98.5 165t-34.5 217t34.5 216.5t98.5 165t154.5 105t203.5 36.5z" />
    <glyph glyph-name="afii10081" unicode="&#x43f;" horiz-adv-x="1129" 
d="M993 0h-196v868h-465v-868h-195v1016h856v-1016z" />
    <glyph glyph-name="afii10084" unicode="&#x442;" horiz-adv-x="1014" 
d="M988 868h-383v-868h-196v868h-383v148h962v-148z" />
    <glyph glyph-name="afii10196" unicode="&#x475;" horiz-adv-x="1083" 
d="M733 844q18 57 41.5 93t51.5 56.5t61 27.5t71 7q27 0 45 -3t28 -7.5t14 -10t4 -9.5v-109h-29q-43 0 -72 -18.5t-45 -60.5l-301 -810h-176l-409 1016h160q23 0 38.5 -11t20.5 -28l240 -624q14 -41 23.5 -80.5t17.5 -78.5q8 39 18.5 78l22.5 81z" />
    <glyph glyph-name="afii10086" unicode="&#x444;" horiz-adv-x="1423" 
d="M797 133q172 10 262.5 108t90.5 267t-90.5 267.5t-262.5 108.5v-751zM626 884q-173 -10 -263.5 -108.5t-90.5 -267.5t90.5 -267t263.5 -108v751zM803 1031q124 -6 224.5 -45t171.5 -106.5t109 -161.5t38 -209q0 -116 -38 -210t-109 -161.5t-171.5 -106t-224.5 -44.5v-334
h-183v334q-125 6 -225 44.5t-171 106t-109 161.5t-38 210q0 115 38 209t109 161.5t171 106.5t225 45v405h183v-405z" />
    <glyph glyph-name="afii10088" unicode="&#x446;" horiz-adv-x="1216" 
d="M1179 148v-435q0 -28 -16 -44t-41 -16h-120v347h-865v1016h195v-868h465v868h196v-868h186z" />
    <glyph glyph-name="afii10193" unicode="&#x45f;" horiz-adv-x="1129" 
d="M993 1016v-1016h-340v-287q0 -28 -15.5 -44t-40.5 -16h-121v347h-339v1016h195v-868h465v868h196z" />
    <glyph glyph-name="afii10089" unicode="&#x447;" horiz-adv-x="1036" 
d="M899 1016v-1016h-195v423q-131 -34 -245 -41.5t-199 20t-133.5 95t-48.5 183.5v336h196v-306q0 -70 27 -111.5t81 -58t134.5 -10t187.5 30.5v455h195z" />
    <glyph glyph-name="afii10090" unicode="&#x448;" horiz-adv-x="1650" 
d="M1513 1016v-1016h-1376v1016h195v-868h395v868h196v-868h394v868h196z" />
    <glyph glyph-name="afii10091" unicode="&#x449;" horiz-adv-x="1737" 
d="M1700 148v-435q0 -28 -16 -44t-41 -16h-121v347h-1385v1016h195v-868h395v868h196v-868h394v868h196v-868h187z" />
    <glyph glyph-name="afii10092" unicode="&#x44a;" horiz-adv-x="1173" 
d="M745 143q101 0 150.5 48.5t49.5 123.5q0 34 -11 64.5t-35 53t-62.5 36t-94.5 13.5h-207v-339h210zM742 624q105 0 177.5 -25.5t116.5 -68t63.5 -98t19.5 -115.5q0 -69 -24.5 -127.5t-72 -100.5t-117.5 -65.5t-160 -23.5h-396v866h-321v150h507v-392h207z" />
    <glyph glyph-name="afii10093" unicode="&#x44b;" horiz-adv-x="1453" 
d="M533 143q100 0 150 48.5t50 123.5q0 34 -11 64.5t-35 53t-62.5 36t-94.5 13.5h-207v-339h210zM530 624q105 0 177.5 -25.5t116.5 -68t63.5 -98t19.5 -115.5q0 -69 -24.5 -127.5t-72.5 -100.5t-117.5 -65.5t-159.5 -23.5h-396v1016h186v-392h207zM1316 1016v-1016h-195
v1016h195z" />
    <glyph glyph-name="afii10094" unicode="&#x44c;" horiz-adv-x="961" 
d="M533 143q100 0 150 48.5t50 123.5q0 34 -11 64.5t-35 53t-62.5 36t-94.5 13.5h-207v-339h210zM530 624q105 0 177.5 -25.5t116.5 -68t63.5 -98t19.5 -115.5q0 -69 -24.5 -127.5t-72.5 -100.5t-117.5 -65.5t-159.5 -23.5h-396v1016h186v-392h207z" />
    <glyph glyph-name="afii10095" unicode="&#x44d;" horiz-adv-x="967" 
d="M66 898q65 64 148 99t192 35q116 0 206 -39.5t151.5 -109t93 -165.5t31.5 -209q0 -124 -35 -221.5t-95.5 -164.5t-143 -102t-177.5 -35q-55 0 -108.5 9t-102.5 28t-92.5 49t-78.5 73l53 66q13 18 37 18q19 0 37.5 -14.5t46.5 -31.5t69 -31.5t104 -14.5q120 0 197.5 81
t91.5 233h-469v136h466q-8 69 -31.5 123.5t-60.5 92.5t-88 58t-114 20q-55 0 -93 -11.5t-64.5 -25t-45 -25t-34.5 -11.5t-24.5 6.5t-16.5 17.5z" />
    <glyph glyph-name="afii10101" unicode="&#x454;" horiz-adv-x="967" 
d="M851 832q-8 -11 -16.5 -17.5t-24.5 -6.5t-34.5 11.5t-45 25t-64.5 25t-93 11.5q-63 0 -114 -20t-88.5 -58t-61 -92.5t-31.5 -123.5h467v-136h-469q14 -152 91 -233t198 -81q63 0 104 14.5t69 31.5t46.5 31.5t37.5 14.5q24 0 37 -18l53 -66q-35 -43 -78.5 -73t-92.5 -49
t-102.5 -28t-108.5 -9q-95 0 -177.5 35t-143 102t-95.5 164.5t-35 221.5q0 113 31.5 209t93 165.5t151.5 109t206 39.5q109 0 192 -35t148 -99z" />
    <glyph glyph-name="afii10096" unicode="&#x44e;" horiz-adv-x="1575" 
d="M1026 138q136 0 201.5 97t65.5 273t-65.5 273.5t-201.5 97.5q-135 0 -200.5 -97.5t-65.5 -273.5t65.5 -273t200.5 -97zM567 585q10 103 46 186t95 141t139 89t179 31q108 0 194.5 -36.5t147.5 -105t94 -165t33 -216.5t-34 -217t-95.5 -165t-148 -104.5t-191.5 -36.5
q-102 0 -183 31.5t-139.5 91t-93.5 144t-43 190.5h-235v-443h-195v1016h195v-431h235z" />
    <glyph glyph-name="afii10097" unicode="&#x44f;" horiz-adv-x="993" 
d="M670 547v339h-161q-55 0 -92 -15.5t-59.5 -40.5t-32 -55t-9.5 -60q0 -79 57 -123.5t155 -44.5h142zM856 1016v-1016h-186v423h-69q-29 0 -48 -4.5t-32.5 -13.5t-23.5 -22t-20 -29l-207 -286q-10 -17 -21 -29.5t-25 -21t-33 -13t-45 -4.5h-135l285 377q37 63 101 85
q-76 10 -128.5 36.5t-85.5 62t-48 78t-15 86.5q0 54 21 106t67 93t119 66.5t176 25.5h353z" />
    <glyph glyph-name="afii10099" unicode="&#x452;" horiz-adv-x="1108" 
d="M332 801q64 66 141 105t178 39q181 0 270 -116.5t89 -332.5q0 -222 -67 -429.5t-187 -396.5l-157 62q51 89 91.5 178t68 182.5t42 193t14.5 210.5q0 76 -15.5 131.5t-44.5 91.5t-69.5 53.5t-91.5 17.5q-75 0 -140.5 -35t-121.5 -97v-658h-196v1094h-177v151h177v231h196
v-231h343v-151h-343v-293z" />
    <glyph glyph-name="afii10194" unicode="&#x463;" horiz-adv-x="1129" 
d="M708 143q101 0 151 48.5t50 123.5q0 34 -11 64.5t-35 53t-63 36t-94 13.5h-228v-339h230zM705 624q106 0 178 -25.5t116.5 -68t64 -98t19.5 -115.5q0 -69 -24.5 -127.5t-72.5 -100.5t-117.5 -65.5t-159.5 -23.5h-417v864h-263v151h263v280h186v-280h322v-151h-322v-240
h227z" />
    <glyph glyph-name="glyph305" 
d="M400 1266q40 0 67.5 9t44 29t24 52.5t7.5 79.5h115q20 0 31 -18t11 -40q0 -50 -20.5 -90t-59.5 -68.5t-94.5 -44t-125.5 -15.5t-125.5 15.5t-94.5 44t-59.5 68.5t-20.5 90q0 22 11 40t31 18h115q0 -47 7.5 -79.5t24 -52.5t44 -29t67.5 -9z" />
    <glyph glyph-name="glyph306" 
d="M399 1229q27 0 44.5 5.5t28 18.5t15 34.5t4.5 53.5h101q19 0 27.5 -16t8.5 -35q0 -36 -16 -64.5t-46 -48.5t-72.5 -31t-94.5 -11q-51 0 -93 11t-72 31t-46.5 48.5t-16.5 64.5q0 19 9 35t27 16h102q0 -32 4 -53.5t14.5 -34.5t28 -18.5t43.5 -5.5z" />
    <glyph glyph-name="glyph307" 
d="M400 1629q40 0 67.5 8.5t44 28t24 51t7.5 78.5h115q20 0 31 -18t11 -40q0 -50 -20.5 -88.5t-59.5 -65t-94.5 -40.5t-125.5 -14t-125.5 14t-94.5 40.5t-59.5 65t-20.5 88.5q0 22 11 40t31 18h115q0 -47 7.5 -78.5t24 -51t44 -28t67.5 -8.5z" />
    <glyph glyph-name="exclam" unicode="!" horiz-adv-x="544" 
d="M366 1436v-572q0 -45 -2 -88t-5.5 -86.5t-8.5 -89.5l-11 -97h-132l-11 97t-8.5 89.5t-5.5 86.5t-2 88v572h186zM138 117q0 27 10 51t28 42t42 28.5t52 10.5q27 0 51 -10.5t42 -28.5t28.5 -42t10.5 -51q0 -28 -10.5 -52t-28.5 -42t-42 -28t-51 -10q-28 0 -52 10t-42 28
t-28 42t-10 52z" />
    <glyph glyph-name="question" unicode="?" horiz-adv-x="901" 
d="M79 1308q32 29 70 55t83 46t97.5 31.5t113.5 11.5q81 0 149.5 -23t118 -66t77.5 -103.5t28 -135.5q0 -76 -22.5 -131.5t-56.5 -96.5t-74.5 -71.5l-76 -57.5t-61 -53.5t-30.5 -59.5l-19 -151h-133l-14 165q-5 46 16 80t54.5 63.5t74.5 57.5t76 62.5t59 78t24 103.5
q0 41 -16 74t-44 56.5t-66 36t-81 12.5q-60 0 -102 -14.5t-71.5 -31.5t-48.5 -31.5t-32 -14.5q-29 0 -42 25zM273 117q0 27 10 51t27.5 42t41.5 28.5t52 10.5q27 0 51 -10.5t42 -28.5t28.5 -42t10.5 -51q0 -28 -10.5 -52t-28.5 -42t-42 -28t-51 -10q-28 0 -52 10t-41.5 28
t-27.5 42t-10 52z" />
    <glyph glyph-name="uni203D" unicode="&#x203d;" horiz-adv-x="984" 
d="M428 249q27 0 51 -10.5t42 -28.5t28.5 -42t10.5 -51q0 -28 -10.5 -52t-28.5 -42t-42 -28t-51 -10q-28 0 -52 10t-41.5 28t-27.5 42t-10 52q0 27 10 51t27.5 42t41.5 28.5t52 10.5zM389 1410q32 12 75 18.5t88 6.5q77 0 141.5 -20t111 -58.5t72.5 -95t26 -130.5
q0 -80 -28.5 -135t-71.5 -93.5t-94 -66.5l-96 -54t-77.5 -56t-38.5 -73l-1 -167h-121q-28 73 -54.5 153t-49.5 158l-183 615l181 46l136 -524l13.5 -54t16.5 -77q24 31 54.5 55t62.5 46l63 43t55 45t39 53t15 67q0 34 -12.5 63t-36.5 51t-58 34.5t-76 12.5q-29 0 -50.5 -4
t-29.5 -4q-22 0 -32.5 8t-13.5 25z" />
    <glyph glyph-name="comma" unicode="," horiz-adv-x="458" 
d="M225 0q-27 0 -49.5 10t-39 27.5t-25.5 41.5t-9 52q0 24 9 45.5t25.5 37.5t39.5 25.5t51 9.5q32 0 56.5 -11.5t41 -32t24.5 -47.5t8 -58q0 -45 -13 -95t-38 -99t-62 -95t-84 -85l-33 31q-15 14 -15 31q0 7 4.5 14.5t11.5 14.5l26 29t31.5 41.5t29 52t19.5 60.5h-9z" />
    <glyph glyph-name="semicolon" unicode=";" horiz-adv-x="528" 
d="M260 0q-27 0 -49.5 10t-39 27.5t-25.5 41.5t-9 52q0 24 9 45.5t25.5 37.5t39.5 25.5t51 9.5q32 0 56.5 -11.5t41 -32t24.5 -47.5t8 -58q0 -45 -13 -95t-38 -99t-62 -95t-84 -85l-33 31q-15 14 -15 31q0 7 4.5 14.5t11.5 14.5l26 29t31.5 41.5t29 52t19.5 60.5h-9z
M131 857q0 27 10 51t27.5 42t41.5 28.5t52 10.5q27 0 51 -10.5t42 -28.5t28.5 -42t10.5 -51q0 -28 -10.5 -52t-28.5 -42t-42 -28t-51 -10q-28 0 -52 10t-41.5 28t-27.5 42t-10 52z" />
    <glyph glyph-name="colon" unicode=":" horiz-adv-x="504" 
d="M121 117q0 27 10 51t27.5 42t41.5 28.5t52 10.5q27 0 51 -10.5t42 -28.5t28.5 -42t10.5 -51q0 -28 -10.5 -52t-28.5 -42t-42 -28t-51 -10q-28 0 -52 10t-41.5 28t-27.5 42t-10 52zM121 857q0 27 10 51t27.5 42t41.5 28.5t52 10.5q27 0 51 -10.5t42 -28.5t28.5 -42
t10.5 -51q0 -28 -10.5 -52t-28.5 -42t-42 -28t-51 -10q-28 0 -52 10t-41.5 28t-27.5 42t-10 52z" />
    <glyph glyph-name="period" unicode="." horiz-adv-x="472" 
d="M105 117q0 27 10 51t27.5 42t41.5 28.5t52 10.5q27 0 51 -10.5t42 -28.5t28.5 -42t10.5 -51q0 -28 -10.5 -52t-28.5 -42t-42 -28t-51 -10q-28 0 -52 10t-41.5 28t-27.5 42t-10 52z" />
    <glyph glyph-name="ellipsis" unicode="&#x2026;" horiz-adv-x="1511" 
d="M105 117q0 27 10 51t27.5 42t41.5 28.5t52 10.5q27 0 51 -10.5t42 -28.5t28.5 -42t10.5 -51q0 -28 -10.5 -52t-28.5 -42t-42 -28t-51 -10q-28 0 -52 10t-41.5 28t-27.5 42t-10 52zM1143 117q0 27 10 51t27.5 42t41.5 28.5t52 10.5q27 0 51 -10.5t42 -28.5t28.5 -42
t10.5 -51q0 -28 -10.5 -52t-28.5 -42t-42 -28t-51 -10q-28 0 -52 10t-41.5 28t-27.5 42t-10 52zM624 117q0 27 10 51t27.5 42t41.5 28.5t52 10.5q27 0 51 -10.5t42 -28.5t28.5 -42t10.5 -51q0 -28 -10.5 -52t-28.5 -42t-42 -28t-51 -10q-28 0 -52 10t-41.5 28t-27.5 42
t-10 52z" />
    <glyph glyph-name="quoteleft" unicode="&#x2018;" horiz-adv-x="431" 
d="M167 944q-44 73 -59 153.5t-3 159.5t51.5 151t105.5 129l61 -37q16 -11 14 -26.5t-11 -25.5q-24 -30 -42.5 -74.5t-24.5 -96.5t4 -108t42 -110q14 -23 8 -41t-26 -26z" />
    <glyph glyph-name="quoteright" unicode="&#x2019;" horiz-adv-x="430" 
d="M270 1532q44 -73 59.5 -153.5t3.5 -159t-52 -151t-106 -129.5l-60 38q-17 11 -15 26.5t11 24.5q25 30 43.5 74.5t24.5 97t-4 108.5t-42 110q-14 23 -8 41t26 26z" />
    <glyph glyph-name="quotedblleft" unicode="&#x201c;" horiz-adv-x="742" 
d="M167 944q-44 73 -59 153.5t-3 159.5t51.5 151t105.5 129l61 -37q16 -11 14 -26.5t-11 -25.5q-24 -30 -42.5 -74.5t-24.5 -96.5t4 -108t42 -110q14 -23 8 -41t-26 -26zM478 944q-44 73 -59 153.5t-3 159.5t51.5 151t105.5 129l61 -37q16 -11 14 -26.5t-11 -25.5
q-24 -30 -42.5 -74.5t-24.5 -96.5t4 -108t42 -110q14 -23 8 -41t-26 -26z" />
    <glyph glyph-name="quotedblright" unicode="&#x201d;" horiz-adv-x="741" 
d="M270 1532q44 -73 59.5 -153.5t3.5 -159t-52 -151t-106 -129.5l-60 38q-17 11 -15 26.5t11 24.5q25 30 43.5 74.5t24.5 97t-4 108.5t-42 110q-14 23 -8 41t26 26zM581 1532q44 -73 59.5 -153.5t3.5 -159t-52 -151t-106 -129.5l-60 38q-17 11 -15 26.5t11 24.5
q25 30 43.5 74.5t24.5 97t-4 108.5t-42 110q-14 23 -8 41t26 26z" />
    <glyph glyph-name="quotesinglbase" unicode="&#x201a;" horiz-adv-x="432" 
d="M256 272q44 -73 59.5 -153.5t3.5 -159t-52 -151t-106 -129.5l-60 38q-17 11 -15 26.5t11 24.5q25 30 43.5 74.5t24.5 97t-4 108.5t-42 110q-14 23 -8 41t26 26z" />
    <glyph glyph-name="quotedblbase" unicode="&#x201e;" horiz-adv-x="743" 
d="M256 272q44 -73 59.5 -153.5t3.5 -159t-52 -151t-106 -129.5l-60 38q-17 11 -15 26.5t11 24.5q25 30 43.5 74.5t24.5 97t-4 108.5t-42 110q-14 23 -8 41t26 26zM567 272q44 -73 59.5 -153.5t3.5 -159t-52 -151t-106 -129.5l-60 38q-17 11 -15 26.5t11 24.5
q25 30 43.5 74.5t24.5 97t-4 108.5t-42 110q-14 23 -8 41t26 26z" />
    <glyph glyph-name="guilsinglleft" unicode="&#x2039;" horiz-adv-x="567" 
d="M432 240q14 -26 10 -47.5t-30 -33.5l-63 -31l-251 391v26l251 390l63 -30q26 -13 30 -34t-10 -47l-153 -255q-16 -25 -29 -37q7 -7 14 -16t15 -22z" />
    <glyph glyph-name="guilsinglright" unicode="&#x203a;" horiz-adv-x="568" 
d="M470 545v-26l-251 -391l-63 31q-26 12 -30 33.5t10 47.5l153 254q15 25 29 38q-8 6 -14.5 15.5l-14.5 21.5l-153 255q-14 26 -10 47t30 34l63 30z" />
    <glyph glyph-name="guillemotleft" unicode="&#xab;" horiz-adv-x="871" 
d="M432 240q14 -26 10 -47.5t-30 -33.5l-63 -31l-251 391v26l251 390l63 -30q26 -13 30 -34t-10 -47l-153 -255q-16 -25 -29 -37q7 -7 14 -16t15 -22zM736 240q14 -26 10 -47.5t-30 -33.5l-63 -31l-251 391v26l251 390l63 -30q26 -13 30 -34t-10 -47l-153 -255
q-16 -25 -29 -37q7 -7 14 -16t15 -22z" />
    <glyph glyph-name="guillemotright" unicode="&#xbb;" horiz-adv-x="872" 
d="M470 545v-26l-251 -391l-63 31q-26 12 -30 33.5t10 47.5l153 254q15 25 29 38q-8 6 -14.5 15.5l-14.5 21.5l-153 255q-14 26 -10 47t30 34l63 30zM774 545v-26l-251 -391l-63 31q-26 12 -30 33.5t10 47.5l153 254q15 25 29 38q-8 6 -14.5 15.5l-14.5 21.5l-153 255
q-14 26 -10 47t30 34l63 30z" />
    <glyph glyph-name="slash" unicode="/" horiz-adv-x="911" 
d="M253 -16q-14 -38 -44 -56.5t-62 -18.5h-82l596 1496q14 34 40.5 52.5t61.5 18.5h83z" />
    <glyph glyph-name="bar" unicode="|" horiz-adv-x="506" 
d="M177 1537h152v-1885h-152v1885z" />
    <glyph glyph-name="brokenbar" unicode="&#xa6;" horiz-adv-x="512" 
d="M180 1537h152v-798h-152v798zM180 458h152v-799h-152v799z" />
    <glyph glyph-name="backslash" unicode="\" horiz-adv-x="911" 
d="M65 1476h83q35 0 61.5 -18.5t39.5 -52.5l597 -1496h-82q-32 0 -62 18.5t-44 56.5z" />
    <glyph glyph-name="hyphen" unicode="-" horiz-adv-x="744" 
d="M122 684h500v-166h-500v166z" />
    <glyph glyph-name="hyphen" unicode="&#x2010;" horiz-adv-x="744" 
d="M122 684h500v-166h-500v166z" />
    <glyph glyph-name="hyphen" unicode="&#xad;" horiz-adv-x="744" 
d="M122 684h500v-166h-500v166z" />
    <glyph glyph-name="endash" unicode="&#x2013;" horiz-adv-x="1160" 
d="M179 664h802v-142h-802v142z" />
    <glyph glyph-name="emdash" unicode="&#x2014;" horiz-adv-x="1589" 
d="M126 664h1337v-142h-1337v142z" />
    <glyph glyph-name="underscore" unicode="_" horiz-adv-x="922" 
d="M855 -157v-130h-788v130h788z" />
    <glyph glyph-name="bullet" unicode="&#x2022;" horiz-adv-x="1160" 
d="M193 594q0 81 30.5 152t83 124t122.5 83.5t150 30.5t151 -30.5t123.5 -83.5t83 -124t30.5 -152q0 -80 -30.5 -150t-83 -123t-123.5 -83.5t-151 -30.5t-150 30.5t-122.5 83.5t-83 123t-30.5 150z" />
    <glyph glyph-name="periodcentered" unicode="&#xb7;" horiz-adv-x="527" 
d="M105 594q0 33 12.5 62.5t34 51.5t50 34.5t60.5 12.5q33 0 62.5 -12.5t51.5 -34.5t34.5 -51.5t12.5 -62.5t-12.5 -61.5t-34.5 -50.5t-51.5 -34.5t-62.5 -12.5q-32 0 -60.5 12.5t-50 34.5t-34 50.5t-12.5 61.5z" />
    <glyph glyph-name="periodcentered" unicode="&#x2219;" horiz-adv-x="527" 
d="M105 594q0 33 12.5 62.5t34 51.5t50 34.5t60.5 12.5q33 0 62.5 -12.5t51.5 -34.5t34.5 -51.5t12.5 -62.5t-12.5 -61.5t-34.5 -50.5t-51.5 -34.5t-62.5 -12.5q-32 0 -60.5 12.5t-50 34.5t-34 50.5t-12.5 61.5z" />
    <glyph glyph-name="parenleft" unicode="(" horiz-adv-x="538" 
d="M256 628q0 -212 53 -413t155 -381q17 -33 9 -51t-25 -29l-87 -53q-75 115 -127.5 228.5t-85 228t-47.5 231.5t-15 239q0 123 15 240t47.5 231.5t85 228t127.5 228.5l87 -53q17 -11 25 -29t-9 -51q-102 -180 -155 -381.5t-53 -413.5z" />
    <glyph glyph-name="parenright" unicode=")" horiz-adv-x="538" 
d="M282 628q0 212 -53.5 413.5t-155.5 381.5q-17 33 -8.5 51t25.5 29l87 53q75 -115 127 -228.5t85 -228t48 -231.5t15 -240q0 -122 -15 -239t-48 -231.5t-85 -228t-127 -228.5l-87 53q-17 11 -25.5 29t8.5 51q102 180 155.5 381t53.5 413z" />
    <glyph glyph-name="bracketleft" unicode="[" horiz-adv-x="616" 
d="M342 1408v-1573h161q23 0 38 -15t15 -37v-77h-378v1831h378v-77q0 -22 -15 -37t-38 -15h-161z" />
    <glyph glyph-name="bracketright" unicode="]" horiz-adv-x="616" 
d="M438 -294h-379v77q0 22 15 37t39 15h161v1573h-161q-24 0 -39 15t-15 37v77h379v-1831z" />
    <glyph glyph-name="braceleft" unicode="{" horiz-adv-x="605" 
d="M480 1408q-75 0 -117.5 -48.5t-42.5 -132.5q0 -56 7 -107t15 -100.5t15 -97.5t7 -97q0 -75 -42.5 -129.5t-110.5 -73.5q68 -19 110.5 -73.5t42.5 -129.5q0 -49 -7 -97.5t-15 -98t-15 -101t-7 -106.5q0 -84 42.5 -132.5t117.5 -48.5h18q12 0 27.5 -9.5t15.5 -31.5v-88h-54
q-85 0 -148.5 23.5t-105.5 66t-63 102t-21 130.5q0 51 7.5 100t17 98t17 97t7.5 98q0 63 -33.5 102.5t-99.5 39.5v117q66 0 99.5 39.5t33.5 102.5q0 49 -7.5 97.5t-17 97.5t-17 98t-7.5 100q0 71 21 130.5t63 102t105.5 66t148.5 23.5h54v-88q0 -22 -15.5 -31.5t-27.5 -9.5
h-18z" />
    <glyph glyph-name="braceright" unicode="}" horiz-adv-x="605" 
d="M539 563q-66 0 -99 -39.5t-33 -102.5q0 -50 7.5 -98t17 -97t17 -98t7.5 -100q0 -71 -21 -130.5t-63.5 -102t-106 -66t-148.5 -23.5h-53v88q0 22 15.5 31.5t27.5 9.5h18q75 0 117.5 48.5t42.5 132.5q0 55 -7 106.5t-15 101t-15 98t-7 97.5q0 75 42 129.5t110 73.5
q-68 19 -110 73.5t-42 129.5q0 49 7 97t15 97.5t15 100.5t7 107q0 84 -42.5 132.5t-117.5 48.5h-18q-12 0 -27.5 9.5t-15.5 31.5v88h53q85 0 148.5 -23.5t106 -66t63.5 -102t21 -130.5q0 -51 -7.5 -100t-17 -98t-17 -97.5t-7.5 -97.5q0 -63 33 -102.5t99 -39.5v-117z" />
    <glyph glyph-name="asterisk" unicode="*" horiz-adv-x="850" 
d="M732 1058l-47 -82l-169 99q-18 11 -33 22.5t-26 27.5q15 -35 15 -75v-194h-95v193q0 20 2.5 37.5t10.5 34.5q-11 -14 -25 -25t-31 -21l-168 -98l-47 82l168 98q18 10 35 16.5t36 8.5q-38 5 -71 26l-169 99l47 82l169 -99q18 -11 32.5 -23t25.5 -28q-8 17 -11.5 36
t-3.5 39v195h95v-193q0 -20 -2.5 -38.5t-9.5 -35.5q11 15 25 26t31 22l168 97l47 -82l-168 -97q-17 -10 -33.5 -17t-34.5 -9q34 -4 68 -25z" />
    <glyph glyph-name="dagger" unicode="&#x2020;" horiz-adv-x="1160" 
d="M656 851v-400l26 -783q-21 -12 -47 -19t-55 -7t-55 7t-47 19l26 783v400h-395v66q0 33 22.5 59.5t69.5 26.5q33 0 70 -4.5t76 -10.5l78.5 -12t78.5 -10l-26 489q44 25 102 25t102 -25l-26 -489q39 4 78.5 10l78.5 12t76 10.5t70 4.5q47 0 69.5 -26.5t22.5 -59.5v-66h-395
z" />
    <glyph glyph-name="daggerdbl" unicode="&#x2021;" horiz-adv-x="1160" 
d="M656 272h395v-66q0 -34 -22.5 -60t-69.5 -26q-33 0 -70 4t-76 10l-78.5 12.5t-78.5 10.5l26 -489q-21 -12 -47 -19t-55 -7t-55 7t-47 19l26 489q-39 -4 -78.5 -10.5l-78.5 -12.5t-76 -10t-70 -4q-47 0 -69.5 26t-22.5 60v66h395v579h-395v66q0 33 22.5 59.5t69.5 26.5
q33 0 70 -4.5t76 -10.5l78.5 -12t78.5 -10l-26 489q44 25 102 25t102 -25l-26 -489q39 4 78.5 10l78.5 12t76 10.5t70 4.5q47 0 69.5 -26.5t22.5 -59.5v-66h-395v-579z" />
    <glyph glyph-name="section" unicode="&#xa7;" horiz-adv-x="995" 
d="M271 726q0 -48 33.5 -82.5t86 -62t116.5 -53t125 -55.5q51 25 73 60.5t22 79.5q0 51 -31.5 87t-81.5 63.5t-111 52t-121 53.5q-60 -29 -85.5 -63.5t-25.5 -79.5zM809 1260q-8 -14 -17 -19t-23 -5q-16 0 -35.5 11t-47 23.5t-64.5 23.5t-88 11q-47 0 -83.5 -11.5t-61.5 -31
t-38.5 -45.5t-13.5 -56q0 -36 24 -63.5t63.5 -51t90 -44l103 -43.5t103 -50t90 -62.5t63.5 -81.5t24 -107q0 -81 -38.5 -145.5t-121.5 -102.5q48 -37 78 -86t30 -118q0 -71 -25.5 -131.5t-75 -104.5t-122 -69t-166.5 -25q-105 0 -194 35t-149 89l46 75q8 14 20 21.5t31 7.5
t39.5 -14t49 -30.5t70 -30t103.5 -13.5q97 0 149.5 43.5t52.5 114.5q0 44 -25 75.5t-65.5 56.5t-92 45.5l-106 42t-106 47t-92 60.5t-65.5 82t-25 111q0 79 42.5 141.5t133.5 98.5q-49 38 -80 90.5t-31 127.5q0 60 24.5 114t71 95t115 65.5t156.5 24.5q101 0 182.5 -32
t139.5 -88z" />
    <glyph glyph-name="paragraph" unicode="&#xb6;" horiz-adv-x="1419" 
d="M1348 1269h-218v-1472h-172v1472h-266v-1472h-172v855q-104 0 -187 31t-142 84.5t-90.5 125t-31.5 153.5q0 87 31.5 159t90.5 123t142 79.5t187 28.5h828v-167z" />
    <glyph glyph-name="asciicircum" unicode="^" horiz-adv-x="1160" 
d="M1036 692h-142q-19 0 -32 10t-21 26l-220 428q-14 28 -24 53t-18 50q-8 -25 -17.5 -50t-21.5 -53l-212 -428q-6 -15 -19.5 -25.5t-34.5 -10.5h-150l390 744h126z" />
    <glyph glyph-name="asciitilde" unicode="~" horiz-adv-x="1160" 
d="M759 622q63 0 98 41t36 110h158q0 -70 -19 -127.5t-55 -99t-88 -64t-118 -22.5q-52 0 -102 15.5t-96.5 34.5t-88.5 34.5t-77 15.5q-63 0 -98 -40.5t-36 -109.5h-158q0 70 19 127.5t55 98.5t88 64t118 23q52 0 102 -16t96.5 -34.5l88.5 -34.5t77 -16z" />
    <glyph glyph-name="quotesingle" unicode="'" horiz-adv-x="412" 
d="M291 1436v-289l-18 -156q-5 -35 -19.5 -54t-48.5 -19q-29 0 -44.5 19t-21.5 54l-18 156v289h170z" />
    <glyph glyph-name="quotedbl" unicode="&#x22;" horiz-adv-x="754" 
d="M291 1436v-289l-18 -156q-5 -35 -19.5 -54t-48.5 -19q-29 0 -44.5 19t-21.5 54l-18 156v289h170zM633 1436v-289l-18 -156q-5 -35 -19.5 -54t-48.5 -19q-29 0 -44.5 19t-21.5 54l-18 156v289h170z" />
    <glyph glyph-name="ampersand" unicode="&#x26;" horiz-adv-x="1430" 
d="M480 698q-99 -55 -147.5 -131.5t-48.5 -164.5q0 -62 22.5 -110.5t60 -81.5t86 -50t99.5 -17q106 0 191 37.5t151 100.5zM1415 0h-190q-32 0 -50.5 7.5t-41.5 31.5l-133 134q-94 -88 -215.5 -138.5t-266.5 -50.5q-81 0 -158.5 27.5t-138.5 79.5t-98.5 126.5t-37.5 168.5
q0 69 23 131.5t64 115t97.5 94.5t122.5 72q-59 77 -86.5 149.5t-27.5 148.5q0 73 27 138t77 113t122.5 76t163.5 28q81 0 147.5 -25.5t114.5 -68.5t75.5 -99t31.5 -117l-122 -25q-37 -8 -54 33q-8 26 -22.5 53t-38 48.5t-56.5 35.5t-76 14q-48 0 -86.5 -16t-65.5 -43.5
t-41.5 -64.5t-14.5 -79q0 -33 8 -64.5t24.5 -63t42.5 -64t62 -69.5l405 -415q37 66 59 139t29 146q2 20 12.5 32t30.5 12h121q-1 -120 -37 -233.5t-102 -210.5z" />
    <glyph glyph-name="at" unicode="@" horiz-adv-x="1677" 
d="M1048 817q-38 8 -80 8q-72 0 -132.5 -30.5t-104.5 -80t-68.5 -114t-24.5 -131.5q0 -70 31.5 -111.5t93.5 -41.5q30 0 60.5 9.5t58 33.5t51.5 64t40 102zM1125 544q-19 -73 -18.5 -118.5t14.5 -71.5t39 -35.5t55 -9.5q47 0 89.5 27.5t74.5 78t51 120.5t19 154
q0 136 -43.5 239t-120 171t-180.5 102.5t-226 34.5q-133 0 -249 -50.5t-201.5 -139.5t-135 -210.5t-49.5 -263.5q0 -168 53 -296t144.5 -213.5t215.5 -129t266 -43.5q152 0 268 32t197 81q22 13 38 8t24 -25l27 -72q-106 -70 -244 -112t-310 -42q-176 0 -326 55.5
t-260.5 160t-173 255t-62.5 341.5q0 108 27.5 209t77.5 189t121 161t157 125t186 80.5t209 28.5q93 0 182 -20.5t167.5 -60t145 -97t114 -133t74.5 -167t27 -198.5q0 -108 -31 -200t-85 -159.5t-127.5 -106t-158.5 -38.5q-75 0 -125.5 36t-65.5 112q-58 -78 -125.5 -111.5
t-145.5 -33.5q-60 0 -105 21t-75 58t-44.5 87.5t-14.5 109.5q0 85 32.5 171.5t97 156.5t160.5 114t223 44q69 0 121 -11t99 -31z" />
    <glyph glyph-name="copyright" unicode="&#xa9;" horiz-adv-x="1660" 
d="M1078 484q8 1 15.5 -3t12.5 -9l66 -71q-57 -67 -140 -103.5t-199 -36.5q-99 0 -179.5 34.5t-137.5 96t-88.5 145.5t-31.5 184q0 101 34.5 185.5t95.5 145t144.5 94.5t181.5 34q109 0 186 -35t133 -91l-51 -72q-5 -6 -13.5 -12.5t-21.5 -6.5q-15 0 -30.5 11t-39.5 24
t-60 24t-93 11q-68 0 -122 -22t-92 -62.5t-58 -98t-20 -129.5q0 -75 20.5 -133t57 -98t86.5 -60.5t109 -20.5q51 0 85 8t59.5 19.5t46 24.5t44.5 23zM97 718q0 101 26 195t74 175t115 148t148 115t174.5 74t194.5 26q152 0 285.5 -57.5t233 -157t157 -233t57.5 -285.5
t-57.5 -285t-157 -232.5t-233 -157t-285.5 -57.5q-101 0 -194.5 26t-174.5 74t-148 114.5t-115 148t-74 175t-26 194.5zM206 718q0 -88 22 -169.5t62 -152t97 -128t126 -98.5t149 -63.5t167 -22.5t167.5 22.5t150.5 63.5t127 98.5t97.5 128t62.5 151.5t22 170t-22 171
t-62.5 153t-97.5 129t-127 99.5t-150.5 64t-167.5 22.5t-167 -22.5t-149 -64t-126 -99.5t-97 -129t-62 -153t-22 -171z" />
    <glyph glyph-name="uni2117" unicode="&#x2117;" horiz-adv-x="1660" 
d="M832 710q60 0 99 12.5t61.5 35t31.5 53.5t9 67t-8.5 65t-29.5 49.5t-56.5 31.5t-89.5 11h-125v-325h108zM849 1167q91 0 157 -22t109.5 -61t64.5 -92t21 -114q0 -59 -21 -111.5t-65 -93t-111 -64t-160 -23.5h-120v-313h-171v894h296zM829 84q87 0 167.5 22.5t150.5 63.5
t127 98.5t97.5 128t62.5 151.5t22 170t-22 171t-62.5 153t-97.5 129t-127 99.5t-150.5 64t-167.5 22.5t-167 -22.5t-149 -64t-126 -99.5t-97 -129t-62 -153t-22 -171q0 -88 22 -169.5t62 -152t97 -128t126 -98.5t149 -63.5t167 -22.5zM829 1451q152 0 285.5 -57.5t233 -157
t157 -233t57.5 -285.5t-57.5 -285t-157 -232.5t-233 -157t-285.5 -57.5q-101 0 -194.5 26t-174.5 74t-148 114.5t-115 148t-74 175t-26 194.5t26 195t74 175t115 148t148 115t174.5 74t194.5 26z" />
    <glyph glyph-name="registered" unicode="&#xae;" horiz-adv-x="1660" 
d="M802 744q55 0 92 10t59.5 29t32 47.5t9.5 64.5t-8.5 62t-29 43.5t-54 26t-84.5 8.5h-125v-291h108zM819 1167q175 0 259.5 -64t84.5 -187q0 -91 -51.5 -158t-155.5 -93q18 -11 31.5 -27t25.5 -38l216 -327h-163q-36 0 -52 28l-187 291q-9 14 -21.5 21t-38.5 7h-73v-347
h-171v894h296zM829 84q87 0 167.5 22.5t150.5 63.5t127 98.5t97.5 128t62.5 151.5t22 170t-22 171t-62.5 153t-97.5 129t-127 99.5t-150.5 64t-167.5 22.5t-167 -22.5t-149 -64t-126 -99.5t-97 -129t-62 -153t-22 -171q0 -88 22 -169.5t62 -152t97 -128t126 -98.5t149 -63.5
t167 -22.5zM829 1451q152 0 285.5 -57.5t233 -157t157 -233t57.5 -285.5t-57.5 -285t-157 -232.5t-233 -157t-285.5 -57.5q-101 0 -194.5 26t-174.5 74t-148 114.5t-115 148t-74 175t-26 194.5t26 195t74 175t115 148t148 115t174.5 74t194.5 26z" />
    <glyph glyph-name="trademark" unicode="&#x2122;" horiz-adv-x="1504" 
d="M87 1436h489v-114h-176v-480h-137v480h-176v114zM1353 1436v-594h-120v347l10 82l-176 -327q-7 -15 -19.5 -22.5t-27.5 -7.5h-20q-34 0 -47 30l-176 326l9 -81v-347h-120v594h116q18 0 26.5 -3.5t19.5 -17.5l159 -291q13 -26 22 -58q5 15 10.5 29.5t12.5 28.5l160 291
q11 14 19.5 17.5t25.5 3.5h116z" />
    <glyph glyph-name="uni2120" unicode="&#x2120;" horiz-adv-x="1494" 
d="M502 1325q-10 -19 -29 -19q-9 0 -19.5 6t-25 13.5t-34 14t-46.5 6.5q-37 0 -60 -18t-23 -47q0 -24 20 -37t50 -23.5l65.5 -22t65.5 -31t50 -51t20 -82.5q0 -42 -14 -78t-41 -62.5t-66.5 -42t-89.5 -15.5q-29 0 -57.5 5.5t-54.5 16t-49 25t-41 32.5l32 62q12 17 29 17
q12 0 24 -8t28.5 -18t38.5 -18t53 -8q46 0 67.5 22t21.5 54q0 28 -20 42.5t-50 24.5t-65.5 20.5t-65.5 30t-50 52t-20 87.5q0 34 13.5 65.5t39 56t63.5 39t86 14.5q54 0 100.5 -17t78.5 -46zM1343 1436v-594h-119v347l9 83l-176 -328q-14 -30 -47 -30h-20q-15 0 -27.5 7.5
t-19.5 22.5l-175 325l9 -80v-347h-121v594h116q18 0 26.5 -3.5t19.5 -17.5l160 -291q6 -14 11.5 -28.5l10.5 -28.5q4 15 9.5 29t12.5 28l160 291q11 14 19.5 17.5t25.5 3.5h116z" />
    <glyph glyph-name="degree" unicode="&#xb0;" horiz-adv-x="830" 
d="M84 1127q0 68 25.5 127.5t70 103.5t104.5 69.5t130 25.5t130.5 -25.5t105.5 -69.5t70.5 -103.5t25.5 -127.5q0 -67 -25.5 -126.5t-70.5 -104t-105.5 -70.5t-130.5 -26t-130 26t-104.5 70.5t-70 104t-25.5 126.5zM222 1126q0 -41 14.5 -76.5t40.5 -61.5t61 -41t76 -15
t76.5 15t61.5 41t40.5 61.5t14.5 76.5t-14.5 76.5t-40.5 62t-61.5 41.5t-76.5 15t-76 -15t-61 -41.5t-40.5 -62t-14.5 -76.5z" />
    <glyph glyph-name="currency" unicode="&#xa4;" horiz-adv-x="1160" 
d="M365 672q0 -44 17 -82.5t46 -68t68.5 -46.5t83.5 -17q45 0 84.5 17t69 46.5t46.5 68t17 82.5q0 45 -17 84.5t-46.5 69t-69 46.5t-84.5 17q-44 0 -83.5 -17t-68.5 -46.5t-46 -69t-17 -84.5zM934 222l-151 152q-44 -29 -95 -45.5t-108 -16.5q-56 0 -106 15.5t-93 43.5
l-153 -152l-98 100l151 151q-29 43 -45 94t-16 108q0 56 15.5 106t43.5 93l-152 153l99 98l151 -151q44 29 95 45.5t108 16.5q56 0 106 -15.5t93 -43.5l153 152l98 -100l-151 -150q29 -44 45.5 -95.5t16.5 -108.5q0 -55 -15.5 -105t-43.5 -93l151 -152z" />
    <glyph glyph-name="Euro" unicode="&#x20ac;" horiz-adv-x="1160" 
d="M24 907h143q21 125 69 225.5t119 171t162.5 108.5t199.5 38q135 0 231 -51t165 -139l-67 -75q-8 -10 -17 -17t-25 -7q-17 0 -35.5 18.5t-48.5 40.5t-76 40.5t-119 18.5q-139 0 -231.5 -94.5t-124.5 -277.5h536v-61q0 -19 -15 -35t-41 -16h-493q-1 -19 -1.5 -38t-0.5 -39
v-29t1 -28h456v-61q0 -19 -15 -35t-41 -16h-390q28 -196 120 -294.5t230 -98.5q53 0 92 10t68 25.5t49.5 33.5t36 33.5t28 25.5t25.5 10q10 0 16.5 -3t14.5 -11l83 -78q-71 -103 -175.5 -160t-247.5 -57q-116 0 -209 39.5t-161.5 113t-112 178t-60.5 233.5h-138v112h129
q-1 14 -1 28v29q0 20 0.5 39t1.5 38h-130v112z" />
    <glyph glyph-name="Euro.oldstyle" horiz-adv-x="1080" 
d="M15 714h136q19 96 63.5 173.5t111 132t155 83.5t195.5 29q123 0 210 -38.5t155 -106.5l-49 -58q-12 -13 -27.5 -22.5t-32.5 -9.5t-37.5 12t-50 26.5t-70 26.5t-96.5 12q-133 0 -216.5 -67t-114.5 -193h482v-37q0 -20 -16 -36.5t-40 -16.5h-441q-2 -16 -2 -32v-33v-27
t1 -26h410v-37q0 -20 -16 -36.5t-40 -16.5h-342q26 -135 106 -203.5t209 -68.5q68 0 115 16t80 35.5t54.5 35.5t39.5 16q16 0 27.5 -8t25.5 -23l50 -59q-66 -82 -164.5 -127t-232.5 -45q-107 0 -193.5 30.5t-150 86.5t-104.5 135.5t-58 178.5h-132v90h122q-1 13 -1 26v27
q0 17 0.5 33t1.5 32h-123v90z" />
    <glyph glyph-name="dollar" unicode="$" horiz-adv-x="1160" 
d="M617 152q125 13 191 81.5t66 175.5q0 47 -17.5 81t-47.5 59.5t-70.5 43.5t-86.5 33zM577 1281q-63 -6 -108.5 -25t-75 -47t-43.5 -64t-14 -75q0 -45 16 -79t44.5 -59.5t67 -44.5t82.5 -35zM665 813q72 -22 142.5 -48.5t126.5 -67.5t90.5 -102.5t34.5 -154.5
q0 -90 -30.5 -170t-88.5 -141t-142.5 -99t-192.5 -45l-12 -167q-1 -20 -16 -36t-38 -16h-72l16 222q-119 13 -220 61.5t-173 122.5l59 90q9 12 22 20t29 8q20 0 44.5 -18l58.5 -41.5t80.5 -46t111.5 -31.5l37 509q-70 21 -138 47.5t-122 70t-87 108.5t-33 163q0 74 29 144
t84.5 125t137 90t186.5 39l10 140q1 20 16 36t38 16h72l-14 -197q105 -14 181.5 -55.5t134.5 -99.5l-47 -72q-21 -33 -49 -33q-14 0 -34.5 12l-49 27.5t-65.5 31.5t-83 24z" />
    <glyph glyph-name="cent" unicode="&#xa2;" horiz-adv-x="1160" 
d="M621 880q-73 -6 -128 -34t-92 -76t-55.5 -114t-18.5 -148q0 -154 63.5 -246.5t176.5 -117.5zM1033 144q-63 -74 -156 -111t-199 -45l-12 -168q-2 -20 -16.5 -36t-37.5 -16h-73l16 222q-91 11 -168 50.5t-133.5 105.5t-88 157t-31.5 205q0 111 33 205t96 163t156 110
t213 45l13 172q2 20 16.5 36t37.5 16h72l-17 -231q81 -13 146.5 -45t119.5 -81l-51 -69q-8 -11 -16 -17.5t-24 -6.5q-12 0 -28 8.5l-37.5 19.5t-51 23t-69.5 19l-54 -739q61 4 101.5 19.5t68.5 32t47 29.5t37 13q12 0 21.5 -4.5t15.5 -12.5z" />
    <glyph glyph-name="sterling" unicode="&#xa3;" horiz-adv-x="1160" 
d="M45 674q0 28 17.5 48t49.5 20h127v254q0 94 27.5 177t82.5 144.5t138.5 97.5t194.5 36q78 0 139.5 -19.5t109 -53.5t82.5 -80t60 -99l-79 -50q-28 -14 -53 -12t-46 27q-19 25 -39 47t-44.5 38.5t-56 25.5t-73.5 9q-60 0 -105.5 -20t-76 -57.5t-46 -90.5t-15.5 -119v-255
h433v-79q0 -20 -16 -36t-40 -16h-377v-230q0 -72 -27 -126.5t-75 -99.5q62 14 123 14h654v-83q0 -15 -6 -30.5t-17.5 -27.5t-27 -20t-34.5 -8h-963v126q34 10 65.5 26t55.5 40.5t38 58t14 78.5v282h-194v63z" />
    <glyph glyph-name="glyph365" horiz-adv-x="1160" 
d="M617 762l-87 -719q-13 -104 -49.5 -178t-97.5 -122t-146.5 -70.5t-196.5 -22.5v103q0 62 64 62q44 1 83 13.5t69.5 40t50.5 71.5t28 109l88 709l-147 15q-45 9 -45 50v81h210l20 162q24 197 144.5 295t344.5 98v-108q0 -32 -15.5 -44.5t-48.5 -12.5q-45 0 -84.5 -12.5
t-70 -40t-51.5 -72.5t-30 -109l-21 -156h316v-142h-328z" />
    <glyph glyph-name="yen" unicode="&#xa5;" horiz-adv-x="1160" 
d="M714 627h299v-111h-335v-103h335v-112h-335v-301h-196v301h-335v112h335v103h-335v111h299l-406 809h163q28 0 45.5 -13t27.5 -36l262 -544q15 -37 25.5 -68.5t18.5 -62.5q7 31 17 62.5t24 68.5l261 544q8 19 26.5 34t45.5 15h164z" />
    <glyph glyph-name="yen.oldstyle" horiz-adv-x="1080" 
d="M675 531h261v-109h-307v-94h307v-108h-307v-220h-177v220h-308v108h308v94h-308v109h262l-364 587h150q32 0 54 -19t32 -41l211 -358q20 -42 32.5 -72t20.5 -59q8 30 19.5 60.5t30.5 70.5l210 357q11 23 38 42t62 19h135z" />
    <glyph glyph-name="afii61248" unicode="&#x2105;" horiz-adv-x="1673" 
d="M1231 1404q11 13 25 22.5t40 9.5h141l-1054 -1405q-10 -14 -25.5 -22.5t-35.5 -8.5h-145zM597 899q11 0 20 -9l60 -66q-45 -57 -110.5 -86.5t-156.5 -29.5q-82 0 -147.5 28t-111.5 78t-70.5 118.5t-24.5 149.5q0 82 26.5 151t74.5 119t114.5 77.5t147.5 27.5t143.5 -27
t104.5 -70l-50 -71q-5 -7 -11.5 -12t-18.5 -5t-24.5 8.5t-30.5 19t-45 19t-69 8.5q-46 0 -84.5 -16.5t-66 -47.5t-43 -77t-15.5 -104t16.5 -103.5t45 -76.5t67 -47.5t82.5 -16.5q26 0 47 2.5t39 8.5t33.5 15.5t31.5 23.5q6 5 12 8t14 3zM1625 358q0 -80 -27 -148
t-76.5 -118.5t-118.5 -79t-153 -28.5t-153 28.5t-118.5 79t-76.5 118.5t-27 148t27 148.5t76.5 119t118.5 79t153 28.5t153 -28.5t118.5 -79t76.5 -119t27 -148.5zM1471 358q0 57 -15.5 102.5t-44 77t-69.5 48.5t-92 17t-92 -17t-69.5 -48.5t-44 -77t-15.5 -102.5
q0 -114 59 -178.5t162 -64.5t162 64.5t59 178.5z" />
    <glyph glyph-name="afii61352" unicode="&#x2116;" horiz-adv-x="2325" 
d="M1191 1436h186v-1436h-108q-25 0 -41.5 9t-33.5 29l-811 1049q2 -27 3.5 -53t1.5 -49v-985h-187v1436h110q28 0 42 -6.5t31 -29.5l813 -1050q-3 29 -4.5 56.5t-1.5 51.5v978zM1892 1322q-83 0 -131 -52t-48 -146q0 -93 48 -145t131 -52q84 0 131.5 52t47.5 145
q0 94 -47.5 146t-131.5 52zM1893 793q-74 0 -135 25.5t-104.5 69.5t-67 104.5t-23.5 130.5t23.5 130.5t67 105t104.5 69.5t135 25t135 -25.5t104.5 -69.5t67.5 -104.5t24 -130.5t-24 -130.5t-67.5 -104.5t-104.5 -69.5t-135 -25.5zM1565 673h653v-141h-653v141z" />
    <glyph glyph-name="numbersign" unicode="#" horiz-adv-x="1160" 
d="M723 875h-237l-61 -312h236zM1114 1019l-15 -83q-5 -31 -25 -46t-62 -15h-128l-62 -312h170q31 0 44.5 -18.5t6.5 -62.5l-9 -63h-233l-82 -419h-88q-14 0 -26.5 6.5t-20.5 18t-11.5 26.5t0.5 33l67 335h-236l-67 -345q-8 -40 -33 -57t-57 -17h-86l82 419h-138
q-30 0 -44 18t-7 63l9 63h201l61 312h-227l14 82q5 32 25 47t62 15h147l69 348q6 32 30 50.5t56 18.5h88l-82 -417h237l81 417h87q32 0 50 -20t12 -52l-69 -345h209z" />
    <glyph glyph-name="zero.oldstyle.pnum" horiz-adv-x="1273" 
d="M1170 560q0 -135 -42.5 -241t-115 -179.5t-170 -112.5t-207.5 -39t-207 39t-169 112.5t-114 179.5t-42 241t42 242t114 180.5t169 112.5t207 39t207.5 -39t170 -112.5t115 -180.5t42.5 -242zM974 560q0 110 -29 188.5t-76 129t-108.5 74.5t-125.5 24q-65 0 -125.5 -24
t-107.5 -74.5t-75.5 -129t-28.5 -188.5q0 -109 28.5 -187t75.5 -128.5t107.5 -74t125.5 -23.5q64 0 125.5 23.5t108.5 74t76 128.5t29 187z" />
    <glyph glyph-name="one.oldstyle.pnum" horiz-adv-x="781" 
d="M599 1122v-1122h-190v797q0 23 1 48t3 50l-222 -159q-26 -20 -50 -17.5t-41 25.5l-66 87l410 291h155z" />
    <glyph glyph-name="two.oldstyle.pnum" horiz-adv-x="1084" 
d="M918 175q33 0 51.5 -20t18.5 -48v-107h-901v110l442 347q53 42 94.5 81t70 78t43.5 80t15 86q0 41 -14.5 75.5t-41 60t-64.5 40t-84 14.5q-56 0 -97 -16.5t-70 -43.5t-47.5 -62t-29.5 -73q-8 -21 -18 -30.5t-32 -9.5q-5 0 -12.5 0.5t-13.5 2.5l-110 19q13 78 47 146
t89 118.5t131 79.5t172 29q85 0 154 -25.5t118 -71.5t76 -109.5t27 -139.5q0 -61 -19 -114.5t-52.5 -102.5t-80.5 -94t-104 -88l-306 -234q47 11 92.5 16.5t81.5 5.5h374z" />
    <glyph glyph-name="three.oldstyle.pnum" horiz-adv-x="1063" 
d="M114 759q13 78 46 146t87 118.5t129 79.5t171 29q86 0 157.5 -25t122.5 -69.5t79.5 -107t28.5 -137.5q0 -109 -57.5 -184.5t-165.5 -113.5q128 -34 189.5 -116.5t61.5 -211.5q0 -75 -30.5 -144t-87 -122.5t-137.5 -85.5t-182 -32q-100 0 -173.5 23.5t-126.5 67t-88.5 105
t-59.5 137.5l90 40q37 16 60 7.5t34 -33.5q14 -39 36 -74t53.5 -62t74.5 -43t99 -16q58 0 106 17.5t81.5 49t52 74.5t18.5 93q0 57 -17 101t-55.5 74t-100.5 45.5t-153 15.5v135q64 2 119.5 16.5t96 43t63.5 71t23 99.5q0 49 -17 87t-46 63.5t-68.5 38.5t-85.5 13
q-55 0 -95.5 -16t-69.5 -43t-47.5 -62t-29.5 -74q-8 -21 -18 -30.5t-32 -9.5q-5 0 -13 0.5t-13 2.5z" />
    <glyph glyph-name="four.oldstyle.pnum" horiz-adv-x="1131" 
d="M700 283v496q0 59 12 128l-471 -624h459zM1069 283v-101q0 -22 -13 -34.5t-35 -12.5h-156v-337h-165v337h-588q-19 0 -37.5 14.5t-21.5 36.5l-16 87l652 848h176v-838h204z" />
    <glyph glyph-name="five.oldstyle.pnum" horiz-adv-x="1000" 
d="M311 620q97 21 185 21q102 0 180 -30t130.5 -82.5t79.5 -125.5t27 -158q0 -105 -36.5 -190t-101 -146t-152.5 -94t-190 -33q-60 0 -114 12t-102 32t-88.5 46t-71.5 55l55 78q14 20 39 27t49 -10q49 -34 109.5 -59t133.5 -25q67 0 120.5 21.5t91 60.5t57.5 94t20 122
q0 58 -18 105t-53.5 80t-88 51t-120.5 18q-48 0 -100.5 -9t-106.5 -25l-116 34l107 628h649v-98q0 -32 -18.5 -53.5t-58.5 -21.5h-440z" />
    <glyph glyph-name="six.oldstyle.pnum" horiz-adv-x="1094" 
d="M552 137q67 0 119.5 22.5t89.5 61t56.5 90t19.5 110.5q0 64 -20 114.5t-56 86t-86.5 54t-111.5 18.5q-68 0 -121 -23t-90.5 -61t-57 -86t-19.5 -99q0 -62 19 -114.5t54.5 -91t87 -60.5t116.5 -22zM461 851l-30.5 -38.5l-28.5 -37.5q45 28 98.5 43.5t116.5 15.5
q80 0 153 -26.5t128.5 -77.5t88 -126.5t32.5 -173.5q0 -93 -34 -174t-96 -141.5t-148.5 -95t-191.5 -34.5q-104 0 -188.5 33.5t-143.5 94.5t-91 147t-32 191q0 91 38.5 191.5t123.5 212.5l328 437q20 29 47.5 45t65.5 16h166z" />
    <glyph glyph-name="seven.oldstyle.pnum" horiz-adv-x="980" 
d="M957 1118v-94q0 -21 -4 -40.5t-14 -39.5l-542 -1087q-10 -23 -36 -41t-54 -18h-143l543 1049q30 57 65 98h-666q-25 0 -42 14t-17 42v117h910z" />
    <glyph glyph-name="eight.oldstyle.pnum" horiz-adv-x="1102" 
d="M550 134q60 0 108.5 18t82 50t51.5 76.5t18 97.5q0 64 -20.5 111t-56 77t-83 44.5t-100.5 14.5t-99.5 -14.5t-82 -44.5t-56 -77t-20.5 -111q0 -53 18 -97.5t51 -76.5t81 -50t108 -18zM550 1216q-55 0 -96.5 -17t-70 -46t-43 -68t-14.5 -82q0 -44 12.5 -85.5t39.5 -73.5
t69.5 -51.5t102.5 -19.5t103 19.5t70 51.5t40 73.5t13 85.5q0 43 -14.5 82t-43 68t-71 46t-97.5 17zM752 703q121 -37 183.5 -120.5t62.5 -209.5q0 -89 -32.5 -161t-91.5 -122.5t-141.5 -77.5t-182.5 -27q-99 0 -181 27t-141 77.5t-91.5 122.5t-32.5 161q0 126 62 209.5
t184 120.5q-100 40 -150.5 118t-50.5 186q0 75 29 140t82 112.5t126.5 75t163.5 27.5t164 -27.5t127.5 -75t82.5 -112.5t29 -140q0 -108 -50.5 -186t-150.5 -118z" />
    <glyph glyph-name="nine.oldstyle.pnum" horiz-adv-x="1036" 
d="M257 727q0 -121 66.5 -185.5t184.5 -64.5q63 0 112 20.5t82.5 55.5t51 80t17.5 95q0 59 -19 105.5t-53 78.5t-81 48.5t-102 16.5q-59 0 -107 -19t-82 -52.5t-52 -79.5t-18 -99zM620 316q23 29 42 56t36 54q-49 -45 -113.5 -70t-141.5 -25q-73 0 -140.5 25t-119.5 73
t-83 119t-31 164q0 88 33 165t92.5 134t142 90t181.5 33q98 0 178 -30.5t136.5 -86.5t87 -134t30.5 -173q0 -59 -11.5 -114.5t-33 -109.5t-53.5 -108.5t-73 -111.5l-297 -417q-17 -23 -41.5 -37.5t-58.5 -14.5h-167z" />
    <glyph glyph-name="zero.oldstyle" horiz-adv-x="1080" 
d="M1028 560q0 -143 -38.5 -250.5t-105 -179t-155.5 -107t-190 -35.5t-189.5 35.5t-154.5 107t-104.5 179t-38.5 250.5q0 144 38.5 251.5t104.5 179.5t154.5 107.5t189.5 35.5t190 -35.5t155.5 -107.5t105 -179.5t38.5 -251.5zM834 560q0 110 -22 188.5t-61.5 129
t-93.5 74.5t-118 24t-118 -24t-93 -74.5t-60.5 -129t-21.5 -188.5q0 -109 21.5 -187t60.5 -128.5t93 -74t118 -23.5t118 23.5t93.5 74t61.5 128.5t22 187z" />
    <glyph glyph-name="one.oldstyle" horiz-adv-x="1080" 
d="M971 144v-144h-772v144h305v637q0 28 1.5 57t3.5 60l-227 -158q-25 -18 -51 -15.5t-40 23.5l-59 85l407 289h153v-978h279z" />
    <glyph glyph-name="two.oldstyle" horiz-adv-x="1080" 
d="M914 175q33 0 51.5 -20t18.5 -48v-107h-901v110l442 347q53 42 94.5 81t70 78t43.5 80t15 86q0 41 -14.5 75.5t-41 60t-64.5 40t-84 14.5q-56 0 -97 -16.5t-70 -43.5t-47.5 -62t-29.5 -73q-8 -21 -18 -30.5t-32 -9.5q-5 0 -12.5 0.5t-13.5 2.5l-110 19q13 78 47 146
t89 118.5t131 79.5t172 29q85 0 154 -25.5t118 -71.5t76 -109.5t27 -139.5q0 -61 -19 -114.5t-52.5 -102.5t-80.5 -94t-104 -88l-306 -234q47 11 92.5 16.5t81.5 5.5h374z" />
    <glyph glyph-name="three.oldstyle" horiz-adv-x="1080" 
d="M119 759q13 78 46 146t87 118.5t129 79.5t171 29q86 0 157.5 -25t122.5 -69.5t79.5 -107t28.5 -137.5q0 -109 -57.5 -184.5t-165.5 -113.5q128 -34 189.5 -116.5t61.5 -211.5q0 -75 -30.5 -144t-87 -122.5t-137.5 -85.5t-182 -32q-100 0 -173.5 23.5t-126.5 67t-88.5 105
t-59.5 137.5l90 40q37 16 60 7.5t34 -33.5q14 -39 36 -74t53.5 -62t74.5 -43t99 -16q58 0 106 17.5t81.5 49t52 74.5t18.5 93q0 57 -17 101t-55.5 74t-100.5 45.5t-153 15.5v135q64 2 119.5 16.5t96 43t63.5 71t23 99.5q0 49 -17 87t-46 63.5t-68.5 38.5t-85.5 13
q-55 0 -95.5 -16t-69.5 -43t-47.5 -62t-29.5 -74q-8 -21 -18 -30.5t-32 -9.5q-5 0 -13 0.5t-13 2.5z" />
    <glyph glyph-name="four.oldstyle" horiz-adv-x="1080" 
d="M672 283v496q0 59 12 128l-471 -624h459zM1041 283v-101q0 -22 -13 -34.5t-35 -12.5h-156v-337h-165v337h-588q-19 0 -37.5 14.5t-21.5 36.5l-16 87l652 848h176v-838h204z" />
    <glyph glyph-name="five.oldstyle" horiz-adv-x="1080" 
d="M349 620q97 21 185 21q102 0 180 -30t130.5 -82.5t79.5 -125.5t27 -158q0 -105 -36.5 -190t-101 -146t-152.5 -94t-190 -33q-60 0 -114 12t-102 32t-88.5 46t-71.5 55l55 78q14 20 39 27t49 -10q49 -34 109.5 -59t133.5 -25q67 0 120.5 21.5t91 60.5t57.5 94t20 122
q0 58 -18 105t-53.5 80t-88 51t-120.5 18q-48 0 -100.5 -9t-106.5 -25l-116 34l107 628h649v-98q0 -32 -18.5 -53.5t-58.5 -21.5h-440z" />
    <glyph glyph-name="six.oldstyle" horiz-adv-x="1080" 
d="M546 137q67 0 119.5 22.5t89.5 61t56.5 90t19.5 110.5q0 64 -20 114.5t-56 86t-86.5 54t-111.5 18.5q-68 0 -121 -23t-90.5 -61t-57 -86t-19.5 -99q0 -62 19 -114.5t54.5 -91t87 -60.5t116.5 -22zM455 851l-30.5 -38.5l-28.5 -37.5q45 28 98.5 43.5t116.5 15.5
q80 0 153 -26.5t128.5 -77.5t88 -126.5t32.5 -173.5q0 -93 -34 -174t-96 -141.5t-148.5 -95t-191.5 -34.5q-104 0 -188.5 33.5t-143.5 94.5t-91 147t-32 191q0 91 38.5 191.5t123.5 212.5l328 437q20 29 47.5 45t65.5 16h166z" />
    <glyph glyph-name="seven.oldstyle" horiz-adv-x="1080" 
d="M1005 1118v-94q0 -21 -4 -40.5t-14 -39.5l-542 -1087q-10 -23 -36 -41t-54 -18h-143l543 1049q30 57 65 98h-666q-25 0 -42 14t-17 42v117h910z" />
    <glyph glyph-name="eight.oldstyle" horiz-adv-x="1080" 
d="M539 134q60 0 108.5 18t82 50t51.5 76.5t18 97.5q0 64 -20.5 111t-56 77t-83 44.5t-100.5 14.5t-99.5 -14.5t-82 -44.5t-56 -77t-20.5 -111q0 -53 18 -97.5t51 -76.5t81 -50t108 -18zM539 1216q-55 0 -96.5 -17t-70 -46t-43 -68t-14.5 -82q0 -44 12.5 -85.5t39.5 -73.5
t69.5 -51.5t102.5 -19.5t103 19.5t70 51.5t40 73.5t13 85.5q0 43 -14.5 82t-43 68t-71 46t-97.5 17zM741 703q121 -37 183.5 -120.5t62.5 -209.5q0 -89 -32.5 -161t-91.5 -122.5t-141.5 -77.5t-182.5 -27q-99 0 -181 27t-141 77.5t-91.5 122.5t-32.5 161q0 126 62 209.5
t184 120.5q-100 40 -150.5 118t-50.5 186q0 75 29 140t82 112.5t126.5 75t163.5 27.5t164 -27.5t127.5 -75t82.5 -112.5t29 -140q0 -108 -50.5 -186t-150.5 -118z" />
    <glyph glyph-name="nine.oldstyle" horiz-adv-x="1080" 
d="M278 727q0 -121 66.5 -185.5t184.5 -64.5q63 0 112 20.5t82.5 55.5t51 80t17.5 95q0 59 -19 105.5t-53 78.5t-81 48.5t-102 16.5q-59 0 -107 -19t-82 -52.5t-52 -79.5t-18 -99zM641 316q23 29 42 56t36 54q-49 -45 -113.5 -70t-141.5 -25q-73 0 -140.5 25t-119.5 73
t-83 119t-31 164q0 88 33 165t92.5 134t142 90t181.5 33q98 0 178 -30.5t136.5 -86.5t87 -134t30.5 -173q0 -59 -11.5 -114.5t-33 -109.5t-53.5 -108.5t-73 -111.5l-297 -417q-17 -23 -41.5 -37.5t-58.5 -14.5h-167z" />
    <glyph glyph-name="zero.pnum" horiz-adv-x="1320" 
d="M1218 718q0 -188 -46 -326t-123.5 -228.5t-178.5 -134.5t-211 -44t-211 44t-178 134.5t-122.5 228.5t-45.5 326t45.5 326.5t122.5 229t178 134.5t211 44t211 -44t178.5 -134.5t123.5 -229t46 -326.5zM1016 718q0 162 -29 271t-77.5 175.5t-113.5 94.5t-137 28t-137 -28
t-113.5 -94.5t-77 -175.5t-28.5 -271t28.5 -271t77 -175t113.5 -94t137 -28t137 28t113.5 94t77.5 175t29 271z" />
    <glyph glyph-name="one.pnum" 
d="M600 1439v-1439h-196v1090q0 24 1 49t3 51l-212 -183q-12 -10 -27 -15t-30 -4.5t-29 6t-23 17.5l-58 71l412 357h159z" />
    <glyph glyph-name="two.pnum" horiz-adv-x="1136" 
d="M974 185q32 0 50 -18.5t18 -48.5v-118h-964v67q0 20 8 42.5t27 40.5l454 455q57 57 103 110t78 105.5t49.5 107.5t17.5 116q0 60 -19 105.5t-52 75.5t-78 45t-97 15t-95.5 -15t-77.5 -42t-57 -64t-33 -80q-14 -38 -35.5 -51t-62.5 -6l-102 18q14 100 55 176t103 127.5
t142.5 77.5t173.5 26q94 0 173.5 -27.5t137.5 -79.5t91 -126.5t33 -168.5q0 -80 -23.5 -148.5t-64 -130.5t-94 -120.5l-113.5 -118.5l-364 -372q42 11 84.5 18t80.5 7h453z" />
    <glyph glyph-name="three.pnum" horiz-adv-x="1154" 
d="M122 1045q15 100 56 176t103 127.5t142.5 77.5t173.5 26t171 -26.5t133.5 -75t86.5 -116.5t31 -150q0 -69 -17 -122t-48.5 -93t-76.5 -67.5t-101 -45.5q137 -38 206 -123.5t69 -216.5q0 -101 -38 -181.5t-104 -136t-153.5 -85t-186.5 -29.5q-113 0 -194 27.5t-138 77
t-94.5 119t-63.5 152.5l85 36q33 14 64 8t45 -35l34.5 -67.5t52.5 -71t82.5 -56.5t124.5 -23q72 0 126 23.5t90 61t54 83.5t18 91q0 56 -14 103t-53.5 80.5t-109.5 52.5t-182 19v142q92 1 155.5 19t102.5 50t56.5 76t17.5 98q0 59 -18 103t-50.5 73.5t-77 44t-96.5 14.5
t-96 -15t-78 -42t-57 -64t-33 -80q-14 -38 -35.5 -51t-61.5 -6z" />
    <glyph glyph-name="four.pnum" horiz-adv-x="1196" 
d="M744 524v560q0 29 1.5 61.5t6.5 67.5l-503 -689h495zM1123 524v-113q0 -17 -11 -29t-31 -12h-166v-370h-171v370h-630q-22 0 -37 12.5t-20 31.5l-20 100l694 923h184v-913h208z" />
    <glyph glyph-name="five.pnum" horiz-adv-x="1089" 
d="M338 900q110 23 199 23q112 0 198 -33.5t144.5 -92t88 -138t29.5 -172.5q0 -114 -40 -207t-110 -159t-165.5 -101.5t-205.5 -35.5q-65 0 -123.5 13t-109.5 34.5t-94.5 49.5t-77.5 59l60 84q19 28 51 28q21 0 46.5 -15.5t60.5 -34.5t83 -34.5t114 -15.5q73 0 131.5 23.5
t99 66.5t62 103t21.5 133q0 65 -19 117t-57 89t-95 56.5t-133 19.5q-106 0 -226 -38l-123 36l117 678h688v-85q0 -42 -26.5 -68.5t-88.5 -26.5h-437z" />
    <glyph glyph-name="seven.pnum" horiz-adv-x="1064" 
d="M1035 1436v-87q0 -38 -8.5 -61.5t-16.5 -40.5l-582 -1178q-14 -29 -39 -49t-67 -20h-140l591 1161q15 28 30 51.5t33 43.5h-734q-19 0 -33 14t-14 33v133h980z" />
    <glyph glyph-name="nine.pnum" horiz-adv-x="1096" 
d="M263 1012q0 -133 72 -205t200 -72q69 0 122 22.5t89.5 60t55.5 87t19 103.5q0 65 -20.5 117.5t-57.5 89t-87.5 56t-111.5 19.5q-63 0 -115 -20.5t-89 -57.5t-57 -88t-20 -112zM657 568q39 51 73 100q-54 -41 -120.5 -62t-141.5 -21q-79 0 -151.5 27t-128 79.5
t-88.5 129.5t-33 177q0 94 35 177t98.5 144.5t152 97t194.5 35.5q105 0 190.5 -34t145.5 -95.5t93 -147.5t33 -189q0 -63 -11.5 -120t-33 -111t-52 -106.5t-69.5 -107.5l-345 -495q-14 -20 -40.5 -33t-60.5 -13h-179z" />
    <glyph glyph-name="zero" unicode="0" horiz-adv-x="1160" 
d="M1102 718q0 -188 -40.5 -326t-111 -228.5t-166 -134.5t-205.5 -44t-205.5 44t-165.5 134.5t-110 228.5t-40 326t40 326.5t110 229t165.5 134.5t205.5 44t205.5 -44t166 -134.5t111 -229t40.5 -326.5zM900 718q0 162 -26.5 271t-71 175.5t-102.5 94.5t-121 28t-121 -28
t-102.5 -94.5t-70.5 -175.5t-26 -271t26 -271t70.5 -175t102.5 -94t121 -28t121 28t102.5 94t71 175t26.5 271z" />
    <glyph glyph-name="one" unicode="1" horiz-adv-x="1160" 
d="M1022 149v-149h-776v149h304v941q0 45 3 93l-244 -207q-14 -11 -28 -14t-26.5 -1t-22 8.5t-15.5 13.5l-61 85l430 371h159v-1290h277z" />
    <glyph glyph-name="two" unicode="2" horiz-adv-x="1160" 
d="M986 185q32 0 50 -18.5t18 -48.5v-118h-964v67q0 20 8 42.5t27 40.5l454 455q57 57 103 110t78 105.5t49.5 107.5t17.5 116q0 60 -19 105.5t-52 75.5t-78 45t-97 15t-95.5 -15t-77.5 -42t-57 -64t-33 -80q-14 -38 -35.5 -51t-62.5 -6l-102 18q14 100 55 176t103 127.5
t142.5 77.5t173.5 26q94 0 173.5 -27.5t137.5 -79.5t91 -126.5t33 -168.5q0 -80 -23.5 -148.5t-64 -130.5t-94 -120.5l-113.5 -118.5l-364 -372q42 11 84.5 18t80.5 7h453z" />
    <glyph glyph-name="three" unicode="3" horiz-adv-x="1160" 
d="M124 1045q15 100 56 176t103 127.5t142.5 77.5t173.5 26t171 -26.5t133.5 -75t86.5 -116.5t31 -150q0 -69 -17 -122t-48.5 -93t-76.5 -67.5t-101 -45.5q137 -38 206 -123.5t69 -216.5q0 -101 -38 -181.5t-104 -136t-153.5 -85t-186.5 -29.5q-113 0 -194 27.5t-138 77
t-94.5 119t-63.5 152.5l85 36q33 14 64 8t45 -35l34.5 -67.5t52.5 -71t82.5 -56.5t124.5 -23q72 0 126 23.5t90 61t54 83.5t18 91q0 56 -14 103t-53.5 80.5t-109.5 52.5t-182 19v142q92 1 155.5 19t102.5 50t56.5 76t17.5 98q0 59 -18 103t-50.5 73.5t-77 44t-96.5 14.5
t-96 -15t-78 -42t-57 -64t-33 -80q-14 -38 -35.5 -51t-61.5 -6z" />
    <glyph glyph-name="four" unicode="4" horiz-adv-x="1160" 
d="M726 524v560q0 29 1.5 61.5t6.5 67.5l-503 -689h495zM1105 524v-113q0 -17 -11 -29t-31 -12h-166v-370h-171v370h-630q-22 0 -37 12.5t-20 31.5l-20 100l694 923h184v-913h208z" />
    <glyph glyph-name="five" unicode="5" horiz-adv-x="1160" 
d="M373 900q110 23 199 23q112 0 198 -33.5t144.5 -92t88 -138t29.5 -172.5q0 -114 -40 -207t-110 -159t-165.5 -101.5t-205.5 -35.5q-65 0 -123.5 13t-109.5 34.5t-94.5 49.5t-77.5 59l60 84q19 28 51 28q21 0 46.5 -15.5t60.5 -34.5t83 -34.5t114 -15.5q73 0 131.5 23.5
t99 66.5t62 103t21.5 133q0 65 -19 117t-57 89t-95 56.5t-133 19.5q-106 0 -226 -38l-123 36l117 678h688v-85q0 -42 -26.5 -68.5t-88.5 -26.5h-437z" />
    <glyph glyph-name="seven" unicode="7" horiz-adv-x="1160" 
d="M1084 1436v-87q0 -38 -8.5 -61.5t-16.5 -40.5l-582 -1178q-14 -29 -39 -49t-67 -20h-140l591 1161q15 28 30 51.5t33 43.5h-734q-19 0 -33 14t-14 33v133h980z" />
    <glyph glyph-name="nine" unicode="9" horiz-adv-x="1160" 
d="M295 1012q0 -133 72 -205t200 -72q69 0 122 22.5t89.5 60t55.5 87t19 103.5q0 65 -20.5 117.5t-57.5 89t-87.5 56t-111.5 19.5q-63 0 -115 -20.5t-89 -57.5t-57 -88t-20 -112zM689 568q39 51 73 100q-54 -41 -120.5 -62t-141.5 -21q-79 0 -151.5 27t-128 79.5
t-88.5 129.5t-33 177q0 94 35 177t98.5 144.5t152 97t194.5 35.5q105 0 190.5 -34t145.5 -95.5t93 -147.5t33 -189q0 -63 -11.5 -120t-33 -111t-52 -106.5t-69.5 -107.5l-345 -495q-14 -20 -40.5 -33t-60.5 -13h-179z" />
    <glyph glyph-name="uni2080" unicode="&#x2080;" horiz-adv-x="668" 
d="M610 140q0 -96 -22 -166.5t-59.5 -116.5t-88 -68.5t-108.5 -22.5q-57 0 -107 22.5t-87 68.5t-58.5 116.5t-21.5 166.5t21.5 166.5t58.5 116.5t87 68.5t107 22.5q58 0 108.5 -22.5t88 -68.5t59.5 -116.5t22 -166.5zM467 140q0 78 -10 128t-28 79.5t-43 40.5t-54 11
t-53 -11t-41.5 -40.5t-27.5 -79.5t-10 -128q0 -77 10.5 -127.5t28.5 -79.5t42 -40.5t51 -11.5t51.5 11.5t43 40.5t29.5 79.5t11 127.5z" />
    <glyph glyph-name="uni2081" unicode="&#x2081;" horiz-adv-x="668" 
d="M568 -133v-93h-413v93h146v418l5 46l-101 -81q-19 -15 -37 -9.5t-26 15.5l-43 60l225 192h118v-641h126z" />
    <glyph glyph-name="uni2082" unicode="&#x2082;" horiz-adv-x="668" 
d="M542 -96q23 0 35 -12.5t12 -33.5v-84h-519v47q0 14 5.5 29t18.5 29l218 215q50 48 83.5 101t33.5 104q0 48 -27.5 74t-69.5 26q-43 0 -69.5 -22.5t-39.5 -61.5q-11 -19 -24.5 -26.5t-42.5 -2.5l-78 13q7 54 29.5 94.5t56.5 67t78.5 40t96.5 13.5q54 0 97 -15.5t73 -43
t46.5 -66.5t16.5 -85q0 -40 -12.5 -74.5t-33.5 -65.5t-48 -60.5l-56 -59.5l-152 -155q24 7 48 11t45 4h179z" />
    <glyph glyph-name="uni2083" unicode="&#x2083;" horiz-adv-x="668" 
d="M87 299q7 54 29.5 94.5t55.5 67t76 40t92 13.5q52 0 94 -15t72 -40.5t46 -60t16 -73.5q0 -128 -115 -173q130 -38 130 -157q0 -57 -21.5 -100t-56.5 -71.5t-81 -43t-94 -14.5q-56 0 -98 12t-73.5 36t-54 60.5t-38.5 86.5l61 26q24 10 45 5t29 -23q5 -10 13 -24.5t22 -28
t35 -23t52 -9.5q28 0 50 9t37 23.5t22.5 33.5t7.5 39q0 29 -8 49.5t-27 34t-50 19.5t-77 6v95q86 1 120 29t34 78q0 47 -27 71.5t-72 24.5t-71.5 -21.5t-38.5 -58.5q-11 -21 -23 -28t-40 -2z" />
    <glyph glyph-name="uni2084" unicode="&#x2084;" horiz-adv-x="668" 
d="M390 45v222q0 43 6 94l-232 -316h226zM613 45v-72q0 -11 -7 -19t-21 -8h-77v-172h-118v172h-302q-20 0 -31 8.5t-14 21.5l-11 62l341 468h135v-461h105z" />
    <glyph glyph-name="uni2085" unicode="&#x2085;" horiz-adv-x="668" 
d="M253 237q43 9 85 9q58 0 102 -16t73.5 -45t44.5 -68.5t15 -87.5q0 -59 -20.5 -107t-57.5 -83t-87 -54t-110 -19q-69 0 -125 27t-94 63l42 60q15 19 36 19q13 0 26.5 -8l30 -17t38.5 -17t54 -8q25 0 47.5 7.5t40 23.5t28 40t10.5 57q0 57 -31.5 88t-91.5 31
q-26 0 -52.5 -6t-52.5 -14l-86 24l63 370h367v-59q0 -29 -18.5 -48.5t-62.5 -19.5h-190z" />
    <glyph glyph-name="uni2086" unicode="&#x2086;" horiz-adv-x="668" 
d="M339 -125q28 0 51 9.5t40 26t26.5 39t9.5 49.5q0 60 -32 93t-89 33q-30 0 -54 -9.5t-40.5 -26.5t-25 -40t-8.5 -49q0 -55 32.5 -90t89.5 -35zM340 276q-20 -25 -43.5 -48t-45.5 -48q28 22 62.5 35.5t74.5 13.5q38 0 75.5 -12.5t67 -38.5t48 -66.5t18.5 -96.5
q0 -51 -19 -96.5t-53.5 -79t-82.5 -53.5t-107 -20q-60 0 -107.5 19t-81 53.5t-51 82t-17.5 105.5q0 107 86 220l170 228q9 14 28.5 23t44.5 9h123z" />
    <glyph glyph-name="uni2087" unicode="&#x2087;" horiz-adv-x="668" 
d="M595 506v-75q0 -14 -3.5 -26t-8.5 -23l-273 -561l-8.5 -16.5t-12 -15.5t-18.5 -11t-28 -4h-108l275 536q20 38 41 65h-334q-12 0 -22 10.5t-10 22.5v98h510z" />
    <glyph glyph-name="uni2088" unicode="&#x2088;" horiz-adv-x="668" 
d="M334 -125q59 0 87 31t28 79q0 31 -8.5 52t-24 34.5t-36.5 19.5t-46 6q-49 0 -81.5 -25.5t-32.5 -86.5q0 -48 28 -79t86 -31zM334 409q-26 0 -45 -8t-31.5 -21t-18.5 -30.5t-6 -35.5q0 -50 24 -78.5t77 -28.5t78.5 28.5t25.5 78.5q0 18 -6.5 35.5t-19.5 30.5t-32.5 21
t-45.5 8zM465 156q66 -23 96 -67.5t30 -106.5q0 -49 -18.5 -89t-52.5 -68t-81.5 -43.5t-104.5 -15.5t-104.5 15.5t-81 43.5t-52.5 68t-19 89q0 62 30 106.5t96 67.5q-51 23 -76 63.5t-25 96.5q0 42 17 78.5t48 63t73.5 41.5t93.5 15t94 -15t73.5 -41.5t47.5 -63t17 -78.5
q0 -56 -25 -96.5t-76 -63.5z" />
    <glyph glyph-name="uni2089" unicode="&#x2089;" horiz-adv-x="668" 
d="M215 291q0 -58 30 -87t86 -29t88 32t32 83q0 54 -33 85t-83 31q-56 0 -88 -31t-32 -84zM335 27q15 20 30.5 37t29.5 34q-47 -24 -106 -24q-39 0 -76.5 14t-67 41t-47.5 65.5t-18 88.5q0 44 18 85.5t51.5 74t80 52t103.5 19.5t102.5 -16.5t77.5 -47.5t49 -74t17 -97
q0 -38 -6.5 -71.5t-19 -65t-30.5 -62t-41 -63.5l-147 -211q-10 -14 -29 -23t-43 -9h-126z" />
    <glyph glyph-name="uni208A" unicode="&#x208a;" horiz-adv-x="668" 
d="M581 72h-192v-204h-111v204h-191v105h191v202h111v-202h192v-105z" />
    <glyph glyph-name="uni208B" unicode="&#x208b;" horiz-adv-x="668" 
d="M108 177h452v-105h-452v105z" />
    <glyph glyph-name="uni208C" unicode="&#x208c;" horiz-adv-x="668" 
d="M108 86h452v-104h-452v104zM108 267h452v-103h-452v103z" />
    <glyph glyph-name="uni208D" unicode="&#x208d;" horiz-adv-x="334" 
d="M179 130q0 -102 24 -202t68 -186q12 -23 5.5 -35t-17.5 -19l-61 -39q-75 115 -107 233.5t-32 247.5q0 128 32.5 247t106.5 233l61 -37q11 -8 17.5 -19.5t-5.5 -34.5q-44 -88 -68 -187.5t-24 -201.5z" />
    <glyph glyph-name="uni208E" unicode="&#x208e;" horiz-adv-x="334" 
d="M156 130q0 102 -24 201.5t-69 187.5q-12 23 -5.5 34.5t18.5 19.5l62 37q74 -115 106 -233t32 -247t-32 -247.5t-106 -233.5l-62 39q-12 7 -18.5 19t5.5 35q45 86 69 186t24 202z" />
    <glyph glyph-name="zero.dnom" horiz-adv-x="668" 
d="M610 366q0 -96 -22 -166.5t-59.5 -116.5t-88 -68.5t-108.5 -22.5q-57 0 -107 22.5t-87 68.5t-58.5 116.5t-21.5 166.5t21.5 166.5t58.5 116.5t87 68.5t107 22.5q58 0 108.5 -22.5t88 -68.5t59.5 -116.5t22 -166.5zM467 366q0 78 -10 128t-28 79.5t-43 40.5t-54 11
t-53 -11t-41.5 -40.5t-27.5 -79.5t-10 -128q0 -77 10.5 -127.5t28.5 -79.5t42 -40.5t51 -11.5t51.5 11.5t43 40.5t29.5 79.5t11 127.5z" />
    </font>
</defs>
</svg>
